+ ShareSpark.net »  :::: Hollywood Zone » Hollywood Movies (Original Rips) » Animation Movies
|- Coco (2017) 720p BRRip 999MB - MkvCage

Add 1000 Get 100 Back

Coco (2017) 720p BRRip 999MB - MkvCage

0 Members and 1 Guest are viewing this topic.

February 09, 2018, 08:23:51 AM
  • Admin
  • Legend Member
  • ****
  • Topic Author
  • Thank You: 1992
  • Reputation: 505
  • Activity:
    22.2%
  • Country: in
  • Posts: 3566
  • Topics: 2170
  • Join Date: Dec 2013
  • ShareSpark Member

Coco (2017) 720p BRRip 999MB - MkvCage
   

   
Poster









   




   

    
IMDb:-

Movie Title: Coco (2017)
Directors: Lee Unkrich, Adrian Molina
Stars: Anthony Gonzalez, Gael García Bernal, Benjamin Bratt
Release Date: 19 January 2018 (UK)
Genres: Animation, Adventure, Comedy
Format: MatRoska (Mkv)
File Size: 999MB
Resolution: 1280x536
Runtime: 01:45:02
Language: English
Subtitles: English [Softcoded] - Muxed
Encoder: MkvCage (MC) Team
Source: 720p.BluRay.x264-SPARKS

Format                      : Matroska
Format version              : Version 4 / Version 2
File size                   : 1 001 MiB
Duration                    : 1 h 45 min
Overall bit rate            : 1 333 kb/s
Encoded date                : UTC 2018-02-09 01:57:43
Writing application         : mkvmerge v9.7.1 ('Pandemonium') 64bit
Writing library             : libebml v1.3.4 + libmatroska v1.4.5
 
Video
ID                          : 3
Format                      : AVC
Format/Info                 : Advanced Video Codec
Format profile              : High[email protected]
Format settings, CABAC      : Yes
Format settings, RefFrames  : 9 frames
Codec ID                    : V_MPEG4/ISO/AVC
Duration                    : 1 h 45 min
Bit rate                    : 1 231 kb/s
Width                       : 1 280 pixels
Height                      : 536 pixels
Display aspect ratio        : 2.40:1
Frame rate mode             : Constant
Frame rate                  : 23.976 (24000/1001) FPS
Color space                 : YUV
Chroma subsampling          : 4:2:0
Bit depth                   : 8 bits
Scan type                   : Progressive
Bits/(Pixel*Frame)          : 0.075
Stream size                 : 925 MiB (92%)
Writing library             : x264 core 133 r2334 a3ac64b
Encoding settings           : cabac=1 / ref=9 / deblock=1:-1:-1 / analyse=0x3:0x133 / me=umh / subme=10 / psy=1 / psy_rd=1.00:0.00 / mixed_ref=1 / me_range=24 / chroma_me=1 / trellis=2 / 8x8dct=1 / cqm=0 / deadzone=21,11 / fast_pskip=1 / chroma_qp_offset=-2 / threads=48 / lookahead_threads=4 / sliced_threads=0 / nr=0 / decimate=1 / interlaced=0 / bluray_compat=0 / constrained_intra=0 / bframes=6 / b_pyramid=2 / b_adapt=2 / b_bias=0 / direct=3 / weightb=1 / open_gop=0 / weightp=2 / keyint=240 / keyint_min=23 / scenecut=40 / intra_refresh=0 / rc_lookahead=60 / rc=2pass / mbtree=1 / bitrate=1231 / ratetol=1.0 / qcomp=0.60 / qpmin=0 / qpmax=69 / qpstep=4 / cplxblur=20.0 / qblur=0.5 / vbv_maxrate=62500 / vbv_bufsize=78125 / nal_hrd=none / ip_ratio=1.40 / aq=1:1.00
Default                     : Yes
Forced                      : No
 
Audio
ID                          : 1
Format                      : AAC
Format/Info                 : Advanced Audio Codec
Format profile              : HE-AAC / LC
Codec ID                    : A_AAC
Duration                    : 1 h 45 min
Bit rate                    : 100.0 kb/s
Channel(s)                  : 2 channels
Channel positions           : Front: L R
Sampling rate               : 48.0 kHz / 24.0 kHz
Frame rate                  : 23.438 FPS (1024 SPF)
Compression mode            : Lossy
Delay relative to video     : 31 ms
Stream size                 : 75.1 MiB (8%)
Default                     : Yes
Forced                      : No
 
Text
ID                          : 2
Format                      : UTF-8
Codec ID                    : S_TEXT/UTF8
Codec ID/Info               : UTF-8 Plain Text
Duration                    : 1 h 34 min
Bit rate                    : 68 b/s
Count of elements           : 1165
Stream size                 : 47.4 KiB (0%)
Language                    : English
Default                     : Yes
Forced                      : No
 
Menu
00:00:00.000                : en:00:00:00.000
00:06:40.191                : en:00:06:40.191
00:08:41.521                : en:00:08:41.521
00:11:13.589                : en:00:11:13.589
00:14:20.318                : en:00:14:20.318
00:17:06.942                : en:00:17:06.942
00:18:20.933                : en:00:18:20.933
00:22:05.991                : en:00:22:05.991
00:24:19.958                : en:00:24:19.958
00:27:44.830                : en:00:27:44.830
00:29:07.913                : en:00:29:07.913
00:32:15.308                : en:00:32:15.308
00:35:18.408                : en:00:35:18.408
00:41:25.524                : en:00:41:25.524
00:47:04.697                : en:00:47:04.697
00:50:54.176                : en:00:50:54.176
00:54:23.885                : en:00:54:23.885
00:56:45.026                : en:00:56:45.026
01:01:42.615                : en:01:01:42.615
01:03:28.137                : en:01:03:28.137
01:08:58.217                : en:01:08:58.217
01:15:17.262                : en:01:15:17.262
01:18:56.773                : en:01:18:56.773
01:21:31.761                : en:01:21:31.761
01:24:31.816                : en:01:24:31.816
01:28:23.464                : en:01:28:23.464
01:33:14.755                : en:01:33:14.755
01:36:10.472                : en:01:36:10.472
 




All Credit Goes To Original Uploader









      
















      
      

Share this topic on FacebookShare this topic on GoogleShare this topic on MySpaceShare this topic on TwitterShare this topic on Yahoo

« Last Edit: February 09, 2018, 08:35:40 AM by тнє ωαll 81317 »




Tags:
 

Related Topics

  Subject / Started by Replies Last post
0 Replies
368 Views
Last post August 30, 2017, 11:35:48 AM
by Rάήνίјάч1234
0 Replies
289 Views
Last post October 22, 2017, 10:05:46 AM
by ♥[--K4Krish--]♥
0 Replies
534 Views
Last post December 25, 2017, 07:48:46 AM
by PSYCHO
0 Replies
560 Views
Last post January 04, 2018, 11:05:48 AM
by PSYCHO
0 Replies
315 Views
Last post January 12, 2018, 04:25:28 PM
by PSYCHO



Back to top