+ ShareSpark.net »  :::: Bollywood Zone » Bollywood Movies (Original Rips) » High Resolution Movies
|- Mastizaade 2016 1080p WebDL x264 AC3 5.1 ESubs [TMB]


HDFC 10% Off

Mastizaade 2016 1080p WebDL x264 AC3 5.1 ESubs [TMB]

0 Members and 1 Guest are viewing this topic.

February 16, 2018, 02:17:17 PM
  • Elite Forces
  • ****
  • Topic Author
  • Thank You: 238
  • Reputation: 101
  • Activity:
    8.2%
  • Country: sa
  • Posts: 1161
  • Topics: 123
  • Join Date: Jan 2017
  • ShareSpark Member
Mastizaade 2016 1080p WebDL x264 AC3 5.1 ESubs [TMB]




General
Format      :      Matroska
Format version        :       Version 4 / Version 2
File size        :     6.67 GiB
Duration          :      1 h 45 min
Overall bit rate            :      9 011 kb/s

Video

Format         :      AVC
Format/Info          :      Advanced Video Codec
Format profile         :      [email protected]
Format settings         :      CABAC / 2 Ref Frames
Format settings, CABAC        :      Yes
Format settings, ReFrames      :      2 frames
Format settings, GOP        :     M=1, N=12
Codec ID         :      V_MPEG4/ISO/AVC
Duration          :      1 h 45 min
Bit rate           :       8 821 kb/s
Width            :       1 920 pixels
Height          :       1 080 pixels
Display aspect ratio        :    16:9
Frame rate mode        :     Constant
Frame rate           :      24.000 FPS
Color space         :      YUV
Chroma subsampling          :      4:2:0
Bit depth         :      8 bits
Scan type          :       Progressive
Bits/(Pixel*Frame)          :      0.177
Stream size         :       6.53 GiB (98%)

Audio

Format           :       E-AC-3
Format/Info         :      Enhanced Audio Coding 3
Codec ID          :      A_EAC3
Duration         :       1 h 45 min
Bit rate mode        :     Constant
Bit rate           :      192 kb/s
Channel(s)         :      6 channels
Channel positions           :     Front: L C R, Side: L R, LFE
Sampling rate       :     48.0 kHz
Frame rate        :    187.500 FPS (256 SPF)
Compression mode        :     Lossy
Delay relative to video       :     -42 ms
Stream size        :     146 MiB (2%)

Text

Format         :     UTF-8
Codec ID           :     S_TEXT/UTF8
Codec ID/Info       :     UTF-8 Plain Text
Duration         :      1 h 44 min
Bit rate         :     66 b/s
Count of elements        :     1808
Stream size       :     50.8 KiB (0%)




Quote

Share this topic on FacebookShare this topic on GoogleShare this topic on MySpaceShare this topic on TwitterShare this topic on Yahoo



Thanks given by:


February 16, 2018, 03:24:18 PM
Reply #1
  • Team SSX
  • Legend Member
  • ***
  • Thank You: 3774
  • Reputation: 924
  • Activity:
    100%
  • Country: np
  • Posts: 2036
  • Topics: 1187
  • Join Date: Jul 2016
  • Love Forever !!

February 16, 2018, 06:04:15 PM
Reply #2
  • Hero Member
  • ***
  • Thank You: 0
  • Reputation: 7
  • Activity:
    8.2%
  • Country: au
  • Posts: 388
  • Topics: 0
  • Join Date: Oct 2017
  • ShareSpark Member

February 18, 2018, 01:50:38 PM
Reply #3
  • Global Moderator
  • Legend Member
  • *****
  • Thank You: 10701
  • Reputation: 2161
  • Activity:
    100%
  • Country: in
  • Posts: 5345
  • Topics: 4415
  • Join Date: Jan 2014
  • ıllıllı ѕмoĸιng ιѕ good ғor нealтн ıllıllı :)

Don't walk as you are king, walk as you don't care who the king is....!!

February 18, 2018, 02:00:39 PM
Reply #4
  • Feeling Special
  • Conqueror
  • Elite Member
  • *****
  • Thank You: 370
  • Reputation: 56
  • Activity:
    3%
  • Country: in
  • Posts: 460
  • Topics: 319
  • Join Date: Oct 2016
  • Born To Live
Born To Live. So always Positive

Tags:
 

Related Topics





Back to top