+ ShareSpark.net »  :::: Dubbed Zone (Dubbed English in Hindi) » English Movies Dubbed in Hindi » High Resolution Movies
|- Next (2007) 1080p BluRay x264 Dual Audio [Hindi DD5.1 - English DD5.1] - Esub ~ Ranvijay


Samsung Galaxy 8

Next (2007) 1080p BluRay x264 Dual Audio [Hindi DD5.1 - English DD5.1] - Esub ~ Ranvijay

0 Members and 1 Guest are viewing this topic.

February 16, 2018, 05:15:35 PM
  • Global Moderator
  • Legend Member
  • *****
  • Topic Author
  • Thank You: 10787
  • Reputation: 2178
  • Activity:
    100%
  • Country: in
  • Posts: 5364
  • Topics: 4431
  • Join Date: Jan 2014
  • ıllıllı ѕмoĸιng ιѕ good ғor нealтн ıllıllı :)




Next (2007) 1080p BluRay x264 Dual Audio [Hindi DD5.1 - English DD5.1] - Esub ~ Ranvijay

Quote
Format                                   : Matroska
Format version                           : Version 4 / Version 2
File size                                : 4.67 GiB
Duration                                 : 1 h 36 min
Overall bit rate                         : 6 949 kb/s
Movie name                               : Next (2007) 1080p BluRay x264 Dual Audio [Hindi DD5.1 - English DD5.1] - Esub ~ Ranvijay

Video
Duration                                 : 1 h 36 min
Bit rate                                 : 6 059 kb/s
Width                                    : 1 920 pixels
Height                                   : 800 pixels
Display aspect ratio                     : 2.40:1
Frame rate mode                          : Constant
Frame rate                               : 23.976 FPS
Color space                              : YUV
Chroma subsampling                       : 4:2:0
Bit depth                                : 8 bits
Scan type                                : Progressive
Bits/(Pixel*Frame)                       : 0.165
Stream size                              : 4.07 GiB (87%)
Title                                    : ~Ranvijay~
Language                                 : English
Default                                  : Yes
Forced                                   : No

Audio #1
ID                                       : 3
Format                                   : AC-3
Format/Info                              : Audio Coding 3
Codec ID                                 : A_AC3
Duration                                 : 1 h 36 min
Bit rate mode                            : Constant
Bit rate                                 : 448 kb/s
Channel(s)                               : 6 channels
Channel positions                        : Front: L C R, Side: L R, LFE
Sampling rate                            : 48.0 kHz
Frame rate                               : 31.250 FPS (1536 SPF)
Bit depth                                : 16 bits
Compression mode                         : Lossy
Stream size                              : 308 MiB (6%)
Title                                    : ~Ranvijay~
Language                                 : Hindi
Service kind                             : Complete Main
Default                                  : Yes
Forced                                   : No

Audio #2
ID                                       : 4
Format                                   : AC-3
Format/Info                              : Audio Coding 3
Codec ID                                 : A_AC3
Duration                                 : 1 h 36 min
Bit rate mode                            : Constant
Bit rate                                 : 448 kb/s
Channel(s)                               : 6 channels
Channel positions                        : Front: L C R, Side: L R, LFE
Sampling rate                            : 48.0 kHz
Frame rate                               : 31.250 FPS (1536 SPF)
Bit depth                                : 16 bits
Compression mode                         : Lossy
Stream size                              : 308 MiB (6%)
Title                                    : ~Ranvijay~
Language                                 : English
Service kind                             : Complete Main
Default                                  : No
Forced                                   : No

Text
ID                                       : 2
Format                                   : UTF-8
Codec ID                                 : S_TEXT/UTF8
Codec ID/Info                            : UTF-8 Plain Text
Duration                                 : 1 h 26 min
Bit rate                                 : 50 b/s
Count of elements                        : 987
Stream size                              : 32.4 KiB (0%)
Title                                    : ~Ranvijay~
Language                                 : English
Default                                  : No
Forced                                   : No

Menu
00:00:00.000                             : :Chapter 1
00:02:28.773                             : :Chapter 2
00:10:06.314                             : :Chapter 3
00:11:45.955                             : :Chapter 4
00:16:14.974                             : :Chapter 5
00:20:14.421                             : :Chapter 6
00:21:02.678                             : :Chapter 7
00:27:54.881                             : :Chapter 8
00:30:17.524                             : :Chapter 9
00:36:18.634                             : :Chapter 10
00:42:12.613                             : :Chapter 11
00:48:20.772                             : :Chapter 12
00:56:10.617                             : :Chapter 13
01:02:01.092                             : :Chapter 14
01:11:04.927                             : :Chapter 15
01:19:16.877                             : :Chapter 16
01:26:07.078                             : :Chapter 17
01:30:36.681                             : :Chapter 18













:download:

Quote

File Leeched & Uploaded From




Don't walk as you are king, walk as you don't care who the king is....!!
Never argue with an idiot. They drag you down to their level and then beat you with experience?

Share this topic on FacebookShare this topic on GoogleShare this topic on MySpaceShare this topic on TwitterShare this topic on Yahoo




Don't walk as you are king, walk as you don't care who the king is....!!

Thanks given by:


February 16, 2018, 05:19:05 PM
Reply #1
  • Semi Newbie
  • **
  • Thank You: 0
  • Reputation: -1
  • Activity:
    0%
  • Country: in
  • Posts: 36
  • Topics: 0
  • Join Date: Sep 2016
  • ShareSpark Member

February 16, 2018, 07:59:12 PM
Reply #2
  • Semi Newbie
  • **
  • Thank You: 0
  • Reputation: -1
  • Activity:
    0%
  • Country: in
  • Posts: 29
  • Topics: 0
  • Join Date: Oct 2016
  • ShareSpark Member

February 16, 2018, 08:11:57 PM
Reply #3
  • Hero Member
  • ***
  • Thank You: 0
  • Reputation: 7
  • Activity:
    8.2%
  • Country: au
  • Posts: 388
  • Topics: 0
  • Join Date: Oct 2017
  • ShareSpark Member

July 26, 2018, 06:59:01 AM
Reply #4
  • Semi Newbie
  • **
  • Thank You: 0
  • Reputation: 0
  • Activity:
    2.4%
  • Country: in
  • Posts: 19
  • Topics: 0
  • Join Date: Nov 2015
  • ShareSpark Member
How can I access permission to download this movie? Please help me.
« Last Edit: July 26, 2018, 06:59:23 AM by thefoneshop »

Tags: next dual audio 
 

Related Topics





Back to top