+ ShareSpark.net »  :::: Hollywood Zone » Hollywood Movies (Original Rips)
|- Thor Ragnarok (2017) 720p BluRay H264 AAC-RARBG By ~Katyayan~


Niki 25% Off

Thor Ragnarok (2017) 720p BluRay H264 AAC-RARBG By ~Katyayan~

0 Members and 1 Guest are viewing this topic.

February 17, 2018, 04:43:50 PM
  • Begginer
  • **
  • Topic Author
  • Thank You: 44
  • Reputation: 6
  • Activity:
    11.4%
  • Country: in
  • Posts: 52
  • Topics: 48
  • Join Date: Feb 2018
  • ShareSpark Member
Thor Ragnarok (2017) 720p BluRay H264 AAC-RARBG By ~Katyayan~



Video
ID                                       : 1
Format                                   : AVC
Format/Info                              : Advanced Video Codec
Format profile                           : [email protected]
Format settings                          : CABAC / 4 Ref Frames
Format settings, CABAC                   : Yes
Format settings, RefFrames               : 4 frames
Codec ID                                 : avc1
Codec ID/Info                            : Advanced Video Coding
Duration                                 : 2 h 10 min
Bit rate                                 : 1 500 kb/s
Width                                    : 1 280 pixels
Height                                   : 536 pixels
Display aspect ratio                     : 2.40:1
Frame rate mode                          : Constant
Frame rate                               : 23.976 (23976/1000) FPS
Color space                              : YUV
Chroma subsampling                       : 4:2:0
Bit depth                                : 8 bits
Scan type                                : Progressive
Bits/(Pixel*Frame)                       : 0.091
Stream size                              : 1.37 GiB (87%)
Writing library                          : x264 core 152 r2851M ba24899
Encoding settings                        : cabac=1 / ref=4 / deblock=1:-1:-1 / analyse=0x3:0x113 / me=umh / subme=9 / psy=1 / psy_rd=1.00:0.15 / mixed_ref=1 / me_range=24 / chroma_me=1 / trellis=2 / 8x8dct=1 / cqm=0 / deadzone=21,11 / fast_pskip=1 / chroma_qp_offset=-3 / threads=32 / lookahead_threads=4 / sliced_threads=0 / nr=0 / decimate=1 / interlaced=0 / bluray_compat=0 / constrained_intra=0 / bframes=3 / b_pyramid=2 / b_adapt=2 / b_bias=0 / direct=3 / weightb=1 / open_gop=0 / weightp=2 / keyint=250 / keyint_min=25 / scenecut=40 / intra_refresh=0 / rc_lookahead=50 / rc=2pass / mbtree=1 / bitrate=1500 / ratetol=1.0 / qcomp=0.60 / qpmin=0 / qpmax=69 / qpstep=4 / cplxblur=20.0 / qblur=0.5 / vbv_maxrate=31250 / vbv_bufsize=31250 / nal_hrd=none / filler=0 / ip_ratio=1.40 / aq=3:1.00
Encoded date                             : UTC 2018-02-17 11:04:45
Tagged date                              : UTC 2018-02-17 11:04:45

Audio
ID                                       : 2
Format                                   : AAC
Format/Info                              : Advanced Audio Codec
Format profile                           : LC
Codec ID                                 : mp4a-40-2
Duration                                 : 2 h 10 min
Bit rate mode                            : Constant
Bit rate                                 : 224 kb/s
Channel(s)                               : 2 channels
Channel(s)_Original                      : 6 channels
Channel positions                        : Front: L C R, Side: L R, LFE
Sampling rate                            : 48.0 kHz
Frame rate                               : 46.875 FPS (1024 SPF)
Compression mode                         : Lossy
Stream size                              : 209 MiB (13%)
Language                                 : English
Default                                  : Yes
Alternate group                          : 1
Encoded date                             : UTC 2018-02-17 11:04:45
Tagged date                              : UTC 2018-02-17 11:04:45






Share this topic on FacebookShare this topic on GoogleShare this topic on MySpaceShare this topic on TwitterShare this topic on Yahoo



Thanks given by:


Tags:
 

Related Topics

  Subject / Started by Replies Last post
0 Replies
587 Views
Last post October 29, 2017, 02:04:17 PM
by jamez.bond.3304
0 Replies
482 Views
Last post January 21, 2018, 09:10:55 AM
by UnikAaYush
0 Replies
410 Views
Last post January 21, 2018, 12:59:37 PM
by JackRoSe
0 Replies
628 Views
Last post February 15, 2018, 10:42:14 AM
by Katyayan
0 Replies
404 Views
Last post February 17, 2018, 04:33:22 PM
by Katyayan



Back to top