+ ShareSpark.net »  :::: Dubbed Zone (Dubbed English in Hindi) » TV Shows (Dubbed in Hindi)
|- TrollHunters S01E25 1080p x264 NetFlix Rip Hindi AC3 5.1 - SSX


10% SBI and 10% Discount

TrollHunters S01E25 1080p x264 NetFlix Rip Hindi AC3 5.1 - SSX

0 Members and 1 Guest are viewing this topic.

February 25, 2018, 07:11:53 PM
  • *****************
  • Head Admin
  • Legend Member
  • *****
  • Topic Author
  • Thank You: 6878
  • Reputation: 2994
  • Activity:
    86.8%
  • Country: in
  • Posts: 19037
  • Topics: 11071
  • Join Date: Mar 2012
  • The Time Is Now......





General

Format                                   : Matroska
Format version                           : Version 4 / Version 2
File size                                : 644 MiB
Duration                                 : 23 min 36 s
Overall bit rate                         : 3 811 kb/s
Encoded date                             : UTC 2018-02-23 08:34:13
Writing application                      : mkvmerge v18.0.0 ('Apricity') 32-bit
Writing library                          : libebml v1.3.5 + libmatroska v1.4.8

Video
ID                                       : 1
Format                                   : AVC
Format/Info                              : Advanced Video Codec
Format profile                           : [email protected]
Format settings                          : CABAC / 2 Ref Frames
Format settings, CABAC                   : Yes
Format settings, RefFrames               : 2 frames
Format settings, GOP                     : M=1, N=12
Codec ID                                 : V_MPEG4/ISO/AVC
Duration                                 : 23 min 36 s
Bit rate                                 : 3 617 kb/s
Width                                    : 1 920 pixels
Height                                   : 1 080 pixels
Display aspect ratio                     : 16:9
Frame rate mode                          : Constant
Frame rate                               : 23.976 (24000/1001) FPS
Color space                              : YUV
Chroma subsampling                       : 4:2:0
Bit depth                                : 8 bits
Scan type                                : Progressive
Bits/(Pixel*Frame)                       : 0.073
Stream size                              : 611 MiB (95%)
Default                                  : Yes
Forced                                   : No

Audio
ID                                       : 2
Format                                   : E-AC-3
Format/Info                              : Enhanced Audio Coding 3
Codec ID                                 : A_EAC3
Duration                                 : 23 min 36 s
Bit rate mode                            : Constant
Bit rate                                 : 192 kb/s
Channel(s)                               : 6 channels
Channel positions                        : Front: L C R, Side: L R, LFE
Sampling rate                            : 48.0 kHz
Frame rate                               : 187.500 FPS (256 SPF)
Compression mode                         : Lossy
Stream size                              : 32.4 MiB (5%)
Language                                 : Hindi
Service kind                             : Complete Main
Default                                  : Yes
Forced                                   : No



















Share this topic on FacebookShare this topic on GoogleShare this topic on MySpaceShare this topic on TwitterShare this topic on Yahoo




July 14, 2018, 01:59:51 PM
Reply #1
  • Semi Newbie
  • **
  • Thank You: 0
  • Reputation: 0
  • Activity:
    0.2%
  • Country: vg
  • Posts: 8
  • Topics: 0
  • Join Date: Jun 2018
  • ShareSpark Member
Willingly I accept. In my opinion, it is an interesting question, I will take part in discussion. I know, that together we can come to a right answer.

July 14, 2018, 02:15:22 PM
Reply #2
  • Semi Newbie
  • **
  • Thank You: 0
  • Reputation: 0
  • Activity:
    0.2%
  • Country: vg
  • Posts: 8
  • Topics: 0
  • Join Date: Jun 2018
  • ShareSpark Member
Willingly I accept. In my opinion, it is an interesting question, I will take part in discussion. I know, that together we can come to a right answer.

July 14, 2018, 02:15:23 PM
Reply #3
  • Semi Newbie
  • **
  • Thank You: 0
  • Reputation: 0
  • Activity:
    0.2%
  • Country: vg
  • Posts: 8
  • Topics: 0
  • Join Date: Jun 2018
  • ShareSpark Member
Willingly I accept. In my opinion, it is an interesting question, I will take part in discussion. I know, that together we can come to a right answer.

October 02, 2018, 08:05:18 PM
Reply #4
  • Semi Newbie
  • **
  • Thank You: 0
  • Reputation: 0
  • Activity:
    2.4%
  • Country: us
  • Posts: 12
  • Topics: 0
  • Join Date: May 2018
  • ShareSpark Member
Please Upload Troll hunters S1E25 5.1ch Hindi dubbed audio

October 02, 2018, 08:06:16 PM
Reply #5
  • Semi Newbie
  • **
  • Thank You: 0
  • Reputation: 0
  • Activity:
    2.4%
  • Country: us
  • Posts: 12
  • Topics: 0
  • Join Date: May 2018
  • ShareSpark Member
Please upload troll hunters s1e25 5.1ch Hindi dubbed audio

Tags:
 

Related Topics





Back to top