+ ShareSpark.net »  :::: Bollywood Zone » Bollywood Movies (Original Rips) » HEVC / H.265 Releases
|- Ek Tha Tiger (2012) (1080p BluRay x265 HEVC 10bit AAC 5.1 Hindi Natty) [QxR]


Samsung Galaxy 8

Ek Tha Tiger (2012) (1080p BluRay x265 HEVC 10bit AAC 5.1 Hindi Natty) [QxR]

0 Members and 1 Guest are viewing this topic.

March 07, 2018, 09:02:11 AM
  • Addic7ed
  • Royal Member
  • ****
  • Topic Author
  • Thank You: 525
  • Reputation: 189
  • Activity:
    0%
  • Country: np
  • Posts: 1074
  • Topics: 702
  • Join Date: May 2017
  • #Me


 :plot:
Media Information
General
Format                                   : Matroska
Format version                           : Version 4 / Version 2
File size                                : 3.75 GiB
Duration                                 : 2 h 12 min
Overall bit rate                         : 4 037 kb/s
Movie name                               : Ek Tha Tiger 2012
Encoded date                             : UTC 2018-03-06 09:19:09
Writing application                      : mkvmerge v21.0.0 ('Tardigrades Will Inherit The Earth') 64-bit
Writing library                          : libebml v1.3.5 + libmatroska v1.4.8
Writing frontend                         : Natty

Video
ID                                       : 1
Format                                   : HEVC
Format/Info                              : High Efficiency Video Coding
Format profile                           : Main [email protected]@Main
Codec ID                                 : V_MPEGH/ISO/HEVC
Duration                                 : 2 h 12 min
Bit rate                                 : 3 335 kb/s
Width                                    : 1 920 pixels
Height                                   : 818 pixels
Display aspect ratio                     : 2.35:1
Frame rate mode                          : Constant
Frame rate                               : 24.000 FPS
Color space                              : YUV
Chroma subsampling                       : 4:2:0
Bit depth                                : 10 bits
Bits/(Pixel*Frame)                       : 0.088
Stream size                              : 3.10 GiB (83%)
Writing library                          : x265 2.7+1-2aa737a99f51:[Windows][MSVC 1900][64 bit] 10bit
Encoding settings                        : cpuid=1173503 / frame-threads=2 / numa-pools=4 / wpp / no-pmode / no-pme / no-psnr / no-ssim / log-level=2 / input-csp=1 / input-res=1920x818 / interlace=0 / total-frames=191377 / level-idc=0 / high-tier=1 / uhd-bd=0 / ref=5 / no-allow-non-conformance / no-repeat-headers / annexb / no-aud / no-hrd / info / hash=0 / no-temporal-layers / open-gop / min-keyint=24 / keyint=400 / gop-lookahead=0 / bframes=8 / b-adapt=2 / b-pyramid / bframe-bias=0 / rc-lookahead=100 / lookahead-slices=5 / scenecut=40 / radl=0 / no-intra-refresh / ctu=32 / min-cu-size=8 / no-rect / no-amp / max-tu-size=16 / tu-inter-depth=1 / tu-intra-depth=1 / limit-tu=0 / rdoq-level=2 / dynamic-rd=0.00 / no-ssim-rd / signhide / no-tskip / nr-intra=0 / nr-inter=0 / no-constrained-intra / no-strong-intra-smoothing / max-merge=2 / limit-refs=3 / limit-modes / me=3 / subme=5 / merange=57 / temporal-mvp / weightp / no-weightb / no-analyze-src-pics / deblock=-4:0 / no-sao / no-sao-non-deblock / rd=4 / no-early-skip / rskip / no-fast-intra / no-tskip-fast / no-cu-lossless / no-b-intra / no-splitrd-skip / rdpenalty=0 / psy-rd=0.00 / psy-rdoq=0.00 / no-rd-refine / no-lossless / cbqpoffs=0 / crqpoffs=0 / rc=abr / bitrate=3333 / qcomp=0.70 / qpstep=4 / stats-write=0 / stats-read=2 / cplxblur=20.0 / qblur=0.5 / ipratio=1.40 / pbratio=1.30 / aq-mode=3 / aq-strength=0.80 / cutree / zone-count=0 / no-strict-cbr / qg-size=32 / no-rc-grain / qpmax=69 / qpmin=0 / no-const-vbv / sar=0 / overscan=0 / videoformat=5 / range=0 / colorprim=1 / transfer=1 / colormatrix=1 / chromaloc=0 / display-window=0 / max-cll=0,0 / min-luma=0 / max-luma=1023 / log2-max-poc-lsb=8 / vui-timing-info / vui-hrd-info / slices=1 / no-opt-qp-pps / no-opt-ref-list-length-pps / multi-pass-opt-rps / scenecut-bias=0.05 / no-opt-cu-delta-qp / aq-motion / no-hdr / no-hdr-opt / no-dhdr10-opt / analysis-reuse-level=8 / scale-factor=0 / refine-intra=0 / refine-inter=0 / refine-mv=0 / no-limit-sao / ctu-info=0 / no-lowpass-dct / refine-mv-type=0 / copy-pic=1
Default                                  : Yes
Forced                                   : No
Color range                              : Limited
Color primaries                          : BT.709
Transfer characteristics                 : BT.709
Matrix coefficients                      : BT.709

Audio
ID                                       : 2
Format                                   : AAC
Format/Info                              : Advanced Audio Codec
Format profile                           : LC
Codec ID                                 : A_AAC
Duration                                 : 2 h 12 min
Bit rate                                 : 662 kb/s
Channel(s)                               : 8 channels
Channel positions                        : Front: L C R, Side: 4, LFE
Sampling rate                            : 48.0 kHz
Frame rate                               : 46.875 FPS (1024 spf)
Compression mode                         : Lossy
Delay relative to video                  : 20 ms
Stream size                              : 633 MiB (16%)
Language                                 : Hindi
Default                                  : No
Forced                                   : No

Subtitle #1
ID                                       : 3
Format                                   : PGS
Muxing mode                              : zlib
Codec ID                                 : S_HDMV/PGS
Codec ID/Info                            : Picture based subtitle format used on BDs/HD-DVDs
Duration                                 : 2 h 7 min
Bit rate                                 : 23.0 kb/s
Count of elements                        : 2326
Stream size                              : 21.0 MiB (1%)
Language                                 : English
Default                                  : Yes
Forced                                   : No

Subtitle #2
ID                                       : 4
Format                                   : PGS
Muxing mode                              : zlib
Codec ID                                 : S_HDMV/PGS
Codec ID/Info                            : Picture based subtitle format used on BDs/HD-DVDs
Duration                                 : 2 h 7 min
Bit rate                                 : 13.0 kb/s
Count of elements                        : 2326
Stream size                              : 11.9 MiB (0%)
Language                                 : Arabic
Default                                  : No
Forced                                   : No

Subtitle #3
ID                                       : 5
Format                                   : PGS
Muxing mode                              : zlib
Codec ID                                 : S_HDMV/PGS
Codec ID/Info                            : Picture based subtitle format used on BDs/HD-DVDs
Duration                                 : 2 h 7 min
Bit rate                                 : 24.4 kb/s
Count of elements                        : 2372
Stream size                              : 22.3 MiB (1%)
Language                                 : French
Default                                  : No
Forced                                   : No

Subtitle #4
ID                                       : 6
Format                                   : PGS
Muxing mode                              : zlib
Codec ID                                 : S_HDMV/PGS
Codec ID/Info                            : Picture based subtitle format used on BDs/HD-DVDs
Duration                                 : 2 h 7 min
Bit rate                                 : 24.9 kb/s
Count of elements                        : 2374
Stream size                              : 22.7 MiB (1%)
Language                                 : dum
Default                                  : No
Forced                                   : No

Menu
00:00:00.000                             : en:Chapter 01
00:03:16.375                             : en:Chapter 02
00:12:34.958                             : en:Chapter 03
00:19:19.875                             : en:Chapter 04
00:33:11.416                             : en:Chapter 05
00:37:31.791                             : en:Chapter 06
00:42:09.708                             : en:Chapter 07
00:45:53.916                             : en:Chapter 08
00:53:28.666                             : en:Chapter 09
00:59:31.750                             : en:Chapter 10
01:06:14.541                             : en:Chapter 11
01:16:52.666                             : en:Chapter 12
01:19:11.500                             : en:Chapter 13
01:36:18.875                             : en:Chapter 14
01:40:29.708                             : en:Chapter 15
01:54:36.833                             : en:Chapter 16
01:57:41.708                             : en:Chapter 17
02:08:06.458                             : en:Chapter 18

Source Information
Release : Ek.Tha.Tiger.•.2012.•.BD50.•.Untouched.BluRay.•.DRs 37 GB @ Hon3yHD


 :ss: :ss:




 :download: :download:

Share this topic on FacebookShare this topic on GoogleShare this topic on MySpaceShare this topic on TwitterShare this topic on Yahoo



Thanks given by:


March 07, 2018, 09:46:56 AM
Reply #1
  • Conqueror
  • Legend Member
  • *****
  • Thank You: 7037
  • Reputation: 1441
  • Activity:
    100%
  • Country: np
  • Posts: 2876
  • Topics: 2253
  • Join Date: Jul 2016
  • *Love Forever*
« Last Edit: March 07, 2018, 09:47:23 AM by special26 »

Tags: aayush 
 

Related Topics

  Subject / Started by Replies Last post
1 Replies
1039 Views
Last post February 10, 2018, 09:01:40 AM
by Changezi
0 Replies
487 Views
Last post April 13, 2018, 10:05:07 AM
by UnikAaYush
0 Replies
430 Views
Last post January 07, 2019, 05:15:48 PM
by Special26
1 Replies
416 Views
Last post February 13, 2019, 03:03:03 PM
by meetkohli17
1 Replies
203 Views
Last post May 21, 2019, 10:15:28 PM
by bunny1234




Back to top