+ ShareSpark.net »  :::: Dubbed Zone (Dubbed English in Hindi) » English Movies Dubbed in Hindi
|- John Wick Chapter 2 (2017) 720p BluRay x264 Dual Audio [Hindi DD2.0 - English DD5.1] - Esub ~ Ranvij


Shop With Balance 50 Off

John Wick Chapter 2 (2017) 720p BluRay x264 Dual Audio [Hindi DD2.0 - English DD5.1] - Esub ~ Ranvij

0 Members and 1 Guest are viewing this topic.

March 09, 2018, 06:20:25 PM
  • Global Moderator
  • Legend Member
  • *****
  • Topic Author
  • Thank You: 6806
  • Reputation: 1507
  • Activity:
    100%
  • Country: in
  • Posts: 4226
  • Topics: 3547
  • Join Date: Jan 2014
  • ıllıllı ѕмoĸιng ιѕ good ғor нealтн ıllıllı :)







John Wick Chapter 2 (2017) 720p BluRay x264 Dual Audio [Hindi DD2.0 - English DD5.1] - Esub ~ Ranvijay

Thanks To DarkDevil For Hindi Audio And Rohit Bhai For Sync

Quote
Format                                   : Matroska
Format version                           : Version 4 / Version 2
File size                                : 1.67 GiB
Duration                                 : 2 h 2 min
Overall bit rate                         : 1 955 kb/s
Movie name                               : John Wick Chapter 2 (2017) 720p BluRay x264 Dual Audio [Hindi DD2.0 - English DD5.1] - Esub ~ Ranvijay

Video
Duration                                 : 2 h 2 min
Bit rate                                 : 1 500 kb/s
Width                                    : 1 280 pixels
Height                                   : 534 pixels
Display aspect ratio                     : 2.40:1
Original display aspect ratio            : 2.40:1
Frame rate mode                          : Constant
Frame rate                               : 23.976 (23976/1000) FPS
Color space                              : YUV
Chroma subsampling                       : 4:2:0
Bit depth                                : 8 bits
Scan type                                : Progressive
Bits/(Pixel*Frame)                       : 0.092
Stream size                              : 1.28 GiB (77%)
Title                                    : ~Ranvijay~
Default                                  : Yes
Forced                                   : No

Audio #1
ID                                       : 2
Format                                   : AC-3
Format/Info                              : Audio Coding 3
Codec ID                                 : A_AC3
Duration                                 : 2 h 2 min
Bit rate mode                            : Constant
Bit rate                                 : 224 kb/s
Channel(s)                               : 2 channels
Channel positions                        : Front: L R
Sampling rate                            : 48.0 kHz
Frame rate                               : 31.250 FPS (1536 SPF)
Bit depth                                : 16 bits
Compression mode                         : Lossy
Stream size                              : 196 MiB (11%)
Title                                    : ~Ranvijay~
Language                                 : Hindi
Service kind                             : Complete Main
Default                                  : Yes
Forced                                   : No

Audio #2
ID                                       : 3
Format                                   : AAC
Format/Info                              : Advanced Audio Codec
Format profile                           : LC
Codec ID                                 : A_AAC-2
Duration                                 : 2 h 2 min
Bit rate                                 : 224 kb/s
Channel(s)                               : 6 channels
Channel positions                        : Front: L C R, Side: L R, LFE
Sampling rate                            : 48.0 kHz
Frame rate                               : 46.875 FPS (1024 SPF)
Compression mode                         : Lossy
Stream size                              : 196 MiB (11%)
Title                                    : ~Ranvijay~
Language                                 : English
Default                                  : No
Forced                                   : No

Text #1
ID                                       : 4
Format                                   : VobSub
Muxing mode                              : zlib
Codec ID                                 : S_VOBSUB
Codec ID/Info                            : Picture based subtitle format used on DVDs
Duration                                 : 1 h 49 min
Bit rate                                 : 3 644 b/s
Count of elements                        : 669
Stream size                              : 2.86 MiB (0%)
Title                                    : ~Ranvijay~
Language                                 : English
Default                                  : Yes
Forced                                   : No

Text #2
ID                                       : 5
Format                                   : VobSub
Muxing mode                              : zlib
Codec ID                                 : S_VOBSUB
Codec ID/Info                            : Picture based subtitle format used on DVDs
Duration                                 : 1 h 54 min
Bit rate                                 : 4 624 b/s
Count of elements                        : 931
Stream size                              : 3.78 MiB (0%)
Title                                    : ~Ranvijay~
Language                                 : English
Default                                  : No
Forced                                   : No














:download:

Quote



File Leeched & Uploaded From




Don't walk as you are king, walk as you don't care who the king is....!!
Never argue with an idiot. They drag you down to their level and then beat you with experience?

Share this topic on FacebookShare this topic on GoogleShare this topic on MySpaceShare this topic on TwitterShare this topic on Yahoo

« Last Edit: March 09, 2018, 07:07:31 PM by Rάήνίјάч1234 »



Don't walk as you are king, walk as you don't care who the king is....!!

Thanks given by:


March 09, 2018, 08:04:14 PM
Reply #1
  • Addic7ed
  • Elite Forces
  • ****
  • Thank You: 117
  • Reputation: 78
  • Activity:
    6.4%
  • Country: pk
  • Posts: 1128
  • Topics: 324
  • Join Date: Sep 2012
  • ShareSpark Member

March 10, 2018, 07:51:39 AM
Reply #2
  • Hero Member
  • ***
  • Thank You: 6
  • Reputation: 5
  • Activity:
    7.4%
  • Country: in
  • Posts: 315
  • Topics: 7
  • Join Date: Mar 2012
  • ShareSpark Member.. Contact me 4 anything.

March 11, 2018, 12:21:19 AM
Reply #3
  • Hot Member
  • ***
  • Thank You: 0
  • Reputation: 3
  • Activity:
    4.4%
  • Posts: 569
  • Topics: 0
  • Join Date: Sep 2012
  • ShareSpark Member

Tags:
 

Related Topics




Back to top