+ ShareSpark.net »  :::: Dubbed Zone (Dubbed English in Hindi) » English Movies Dubbed in Hindi
|- RoboCop (2014) BluRay 720p x264 [Dual Audio] English DD 5.1 - Hindi DD 5.1 ~AbhiSona~


Mastercard 10% Off

RoboCop (2014) BluRay 720p x264 [Dual Audio] English DD 5.1 - Hindi DD 5.1 ~AbhiSona~

0 Members and 1 Guest are viewing this topic.

March 09, 2018, 08:38:41 PM
  • Feeling Special
  • Conqueror
  • Elite Member
  • *****
  • Topic Author
  • Thank You: 368
  • Reputation: 56
  • Activity:
    3%
  • Country: in
  • Posts: 460
  • Topics: 318
  • Join Date: Oct 2016
  • Born To Live
RoboCop (2014) BluRay 720p x264 [Dual Audio] English DD 5.1 - Hindi DD 5.1 ~AbhiSona~ 1 GB






  :info:

Video
ID : 1
Format : AVC
Format/Info : Advanced Video Codec
Format profile : [email protected]
Format settings, CABAC : Yes
Format settings, ReFrames : 4 frames
Codec ID : V_MPEG4/ISO/AVC
Duration : 1h 57mn
Bit rate : 934 Kbps
Width : 1 280 pixels
Height : 536 pixels
Display aspect ratio : 2.40:1
Frame rate mode : Constant
Frame rate : 23.976 fps
Color space : YUV
Chroma subsampling : 4:2:0
Bit depth : 8 bits
Scan type : Progressive
Bits/(Pixel*Frame) : 0.057
Stream size : 767 MiB (77%)
Encoder : AbhiSona

Audio #1
ID : 2
Format : AC-3
Format/Info : Audio Coding 3
Mode extension : CM (complete main)
Format settings, Endianness : Big
Codec ID : A_AC3
Duration : 1h 57mn
Bit rate mode : Constant
Bit rate : 128 Kbps
Channel(s) : 6 channels
Channel positions : Front: L C R, Side: L R, LFE
Sampling rate : 48.0 KHz
Bit depth : 16 bits
Compression mode : Lossy
Stream size : 108 MiB (11%)
Name : AbhiSona
Language : English
Default : No
Forced : No

Audio #2
ID : 3
Format : AC-3
Format/Info : Audio Coding 3
Mode extension : CM (complete main)
Format settings, Endianness : Big
Codec ID : A_AC3
Duration : 1h 57mn
Bit rate mode : Constant
Bit rate : 128 Kbps
Channel(s) : 6 channels
Channel positions : Front: L C R, Side: L R, LFE
Sampling rate : 48.0 KHz
Bit depth : 16 bits
Compression mode : Lossy
Stream size : 108 MiB (11%)
Name : AbhiSona
Language : Hindi
Default : Yes
Forced : No



 :ss:





 :download:



Share this topic on FacebookShare this topic on GoogleShare this topic on MySpaceShare this topic on TwitterShare this topic on Yahoo



Born To Live. So always Positive

Thanks given by:


Tags:
 

Related Topics





Back to top