+ ShareSpark.net »  :::: Dubbed Zone (Dubbed English in Hindi) » English Movies Dubbed in Hindi
|- John Wick Chapter 2 2017 720p x264 Esub BluRay 5.1 Dual Audio English Hindi GOPISAHI


Shop With Balance 50 Off

John Wick Chapter 2 2017 720p x264 Esub BluRay 5.1 Dual Audio English Hindi GOPISAHI

0 Members and 1 Guest are viewing this topic.

March 10, 2018, 09:08:43 AM
  • Addic7ed
  • Special Member
  • ****
  • Topic Author
  • Thank You: 389
  • Reputation: 89
  • Activity:
    42.8%
  • Country: in
  • Posts: 812
  • Topics: 768
  • Join Date: Oct 2013
  • ShareSpark Member

Format                         : Matroska
Format version                 : Version 4 / Version 2
File size                      : 678 MiB
Duration                       : 2 h 2 min
Overall bit rate               : 775 kb/s
Movie name                     : John Wick Chapter 2 2017 GOPISAHI

Video
Format                         : AVCs
Codec ID                       : V_MPEG4/ISO/AVC
Duration                       : 2 h 2 min
Bit rate                       : 600 kb/s
Width                          : 1 280 pixels
Height                         : 534 pixels
Display aspect ratio           : 2.40:1
Original display aspect ratio  : 2.40:1
Frame rate mode                : Constant
Frame rate                     : 23.976 (24000/1001) FPS
Stream size                    : 525 MiB (77%)
Title                          : GOPISAHI
Writing library                : x264 core 155 r2893 b00bcaf

Audio #1
Format                         : AAC
Duration                       : 2 h 2 min
Bit rate                       : 85.1 kb/s
Channel(s)                     : 6 channels
Channel positions              : Front: L C R, Side: L R, LFE
Sampling rate                  : 44.1 kHz
Frame rate                     : 43.066 FPS (1024 SPF)
Compression mode               : Lossy
Stream size                    : 74.4 MiB (11%)
Language                       : English

Audio #2
Format                         : AAC
Duration                       : 2 h 2 min
Bit rate                       : 87.3 kb/s
Channel(s)                     : 6 channels
Channel positions              : Front: L C R, Side: L R, LFE
Sampling rate                  : 44.1 kHz
Frame rate                     : 43.066 FPS (1024 SPF)
Compression mode               : Lossy
Stream size                    : 76.4 MiB (11%)
Title                          : GOPISAHI
Language                       : Hindi

Text
Language                       : English













Share this topic on FacebookShare this topic on GoogleShare this topic on MySpaceShare this topic on TwitterShare this topic on Yahoo



Thanks given by:


March 10, 2018, 09:13:56 AM
Reply #1
  • Addic7ed
  • Royal Member
  • ****
  • Thank You: 469
  • Reputation: 177
  • Activity:
    100%
  • Country: np
  • Posts: 1032
  • Topics: 664
  • Join Date: May 2017
  • #Me

March 10, 2018, 10:36:12 AM
Reply #2
  • Newbie
  • **
  • Thank You: 0
  • Reputation: 0
  • Activity:
    0.2%
  • Posts: 3
  • Topics: 0
  • Join Date: Sep 2013
  • ShareSpark Member
linkstaker is best to download movie because speed is too great there is no limited speed and there is no need to generate link :10on10:

Tags:
 

Related Topics




Back to top