+ ShareSpark.net »  :::: Dubbed Zone (Dubbed English in Hindi) » English Movies Dubbed in Hindi
|- Legend of the Naga Pearls 2017 720p x264 Esub BluRay Dual Audio English Chinese GOPISAHI


Redbus 25% Off

Legend of the Naga Pearls 2017 720p x264 Esub BluRay Dual Audio English Chinese GOPISAHI

0 Members and 1 Guest are viewing this topic.

March 10, 2018, 04:08:37 PM
  • Addic7ed
  • Special Member
  • ****
  • Topic Author
  • Thank You: 389
  • Reputation: 89
  • Activity:
    44.6%
  • Country: in
  • Posts: 812
  • Topics: 768
  • Join Date: Oct 2013
  • ShareSpark Member

Format                         : Matroska
Format version                 : Version 4 / Version 2
File size                      : 603 MiB
Duration                       : 1 h 47 min
Overall bit rate               : 782 kb/s
Movie name                     : Legend of the Naga Pearls 2017 GOPISAHI

Video
Format                         : AVC
Codec ID                       : V_MPEG4/ISO/AVC
Duration                       : 1 h 47 min
Bit rate                       : 600 kb/s
Width                          : 1 280 pixels
Height                         : 720 pixels
Display aspect ratio           : 16:9
Frame rate mode                : Constant
Frame rate                     : 24.000 FPS
Stream size                    : 463 MiB (77%)
Title                          : GOPISAHI
Writing library                : x264 core 155 r2893 b00bcaf

Audio #1
Format                         : AAC
Duration                       : 1 h 47 min
Bit rate                       : 92.5 kb/s
Channel(s)                     : 6 channels
Channel positions              : Front: L C R, Side: L R, LFE
Sampling rate                  : 44.1 kHz
Frame rate                     : 43.066 FPS (1024 SPF)
Compression mode               : Lossy
Stream size                    : 71.3 MiB (12%)
Title                          : GOPISAHI
Language                       : Hindi

Audio #2
Format                         : AAC
Duration                       : 1 h 47 min
Bit rate                       : 86.6 kb/s
Channel(s)                     : 6 channels
Channel positions              : Front: L C R, Side: L R, LFE
Sampling rate                  : 44.1 kHz
Frame rate                     : 43.066 FPS (1024 SPF)
Compression mode               : Lossy
Stream size                    : 66.8 MiB (11%)
Title                          : GOPISAHI
Language                       : Chinese

Text
Language                       : English













Share this topic on FacebookShare this topic on GoogleShare this topic on MySpaceShare this topic on TwitterShare this topic on Yahoo




Tags:
 

Related Topics




Back to top