+ ShareSpark.net »  :::: Dubbed Zone (Dubbed English in Hindi) » English Movies Dubbed in Hindi
|- Seeking a Friend For The End of The World 2012 720p x264 Esub BluRay Dual Audio English Hindi GOPIS


TV and Appliances

Seeking a Friend For The End of The World 2012 720p x264 Esub BluRay Dual Audio English Hindi GOPIS

0 Members and 1 Guest are viewing this topic.

March 11, 2018, 01:55:06 PM
  • Addic7ed
  • Special Member
  • ****
  • Topic Author
  • Thank You: 401
  • Reputation: 90
  • Activity:
    0.2%
  • Country: in
  • Posts: 815
  • Topics: 770
  • Join Date: Oct 2013
  • ShareSpark Member

Format                         : Matroska
Format version                 : Version 4 / Version 2
File size                      : 559 MiB
Duration                       : 1 h 40 min
Overall bit rate               : 774 kb/s
Movie name                     : Seeking a Friend For The End of The World 2012 GOPISAHI

Video
Format                         : AVC
Codec ID                       : V_MPEG4/ISO/AVC
Duration                       : 1 h 40 min
Bit rate                       : 600 kb/s
Width                          : 1 280 pixels
Height                         : 544 pixels
Display aspect ratio           : 2.35:1
Frame rate mode                : Constant
Frame rate                     : 23.976 (24000/1001) FPS
Stream size                    : 433 MiB (77%)
Writing library                : x264 core 155 r2893 b00bcaf

Audio #1
Format                         : AAC
Duration                       : 1 h 40 min
Bit rate                       : 83.0 kb/s
Channel(s)                     : 6 channels
Channel positions              : Front: L C R, Side: L R, LFE
Sampling rate                  : 44.1 kHz
Frame rate                     : 43.066 FPS (1024 SPF)
Compression mode               : Lossy
Stream size                    : 59.9 MiB (11%)
Title                          : GOPISAHI
Language                       : English

Audio #2
Format                         : AAC
Duration                       : 1 h 40 min
Bit rate                       : 88.8 kb/s
Channel(s)                     : 6 channels
Channel positions              : Front: L C R, Side: L R, LFE
Sampling rate                  : 44.1 kHz
Frame rate                     : 43.066 FPS (1024 SPF)
Compression mode               : Lossy
Stream size                    : 64.1 MiB (11%)
Title                          : GOPISAHI
Language                       : Hindi

Text
Language                       : English







Share this topic on FacebookShare this topic on GoogleShare this topic on MySpaceShare this topic on TwitterShare this topic on Yahoo




Tags:
 

Related Topics





Back to top