+ ShareSpark.net »  :::: Dubbed Zone (Dubbed English in Hindi) » English Movies Dubbed in Hindi
|- Star Wars The Last Jedi 2017 720p x264 Esub BluRay Dual Audio English Hindi Cam GOPISAHI


First Recharge Offer 75% Off

Star Wars The Last Jedi 2017 720p x264 Esub BluRay Dual Audio English Hindi Cam GOPISAHI

0 Members and 1 Guest are viewing this topic.

March 12, 2018, 01:57:43 PM
  • Addic7ed
  • Special Member
  • ****
  • Topic Author
  • Thank You: 389
  • Reputation: 89
  • Activity:
    44.8%
  • Country: in
  • Posts: 812
  • Topics: 768
  • Join Date: Oct 2013
  • ShareSpark Member

Format                         : Matroska
Format version                 : Version 4 / Version 2
File size                      : 849 MiB
Duration                       : 2 h 31 min
Overall bit rate               : 781 kb/s
Movie name                     : Star Wars The Last Jedi 2017 GOPISAHI

Video
Format                         : AVC
Codec ID                       : V_MPEG4/ISO/AVC
Duration                       : 2 h 31 min
Bit rate                       : 600 kb/s
Width                          : 1 280 pixels
Height                         : 536 pixels
Display aspect ratio           : 2.40:1
Frame rate mode                : Constant
Frame rate                     : 23.976 (24000/1001) FPS
Stream size                    : 652 MiB (77%)
Writing library                : x264

Audio #1
Format                         : AAC
Duration                       : 2 h 31 min
Bit rate                       : 87.2 kb/s
Channel(s)                     : 6 channels
Channel positions              : Front: L C R, Side: L R, LFE
Sampling rate                  : 44.1 kHz
Frame rate                     : 43.066 FPS (1024 SPF)
Compression mode               : Lossy
Stream size                    : 94.7 MiB (11%)
Title                          : GOPISAHI
Language                       : English

Audio #2
Format                         : AAC
Duration                       : 2 h 31 min
Bit rate                       : 91.4 kb/s
Channel(s)                     : 2 channels
Channel positions              : Front: L R
Sampling rate                  : 44.1 kHz
Frame rate                     : 43.066 FPS (1024 SPF)
Compression mode               : Lossy
Stream size                    : 99.3 MiB (12%)
Title                          : GOPISAHI
Language                       : Hindi

Text
Language                       : English










Share this topic on FacebookShare this topic on GoogleShare this topic on MySpaceShare this topic on TwitterShare this topic on Yahoo

« Last Edit: March 13, 2018, 01:24:41 PM by jattsahi2 »



Tags:
 

Related Topics




Back to top