+ ShareSpark.net »  :::: Dubbed Zone (Dubbed English in Hindi) » English Movies Dubbed in Hindi » HEVC / H.265 Releases
|- Justice.League.2017.1080p.BluRay.x265.HEVC.Hindi.AC3.DD5.1[Team SSX]

10% Off with Visa
  • Justice.League.2017.1080p.BluRay.x265.HEVC.Hindi.AC3.DD5.1[Team SSX] 4 1
Currently:  

Justice.League.2017.1080p.BluRay.x265.HEVC.Hindi.AC3.DD5.1[Team SSX]

0 Members and 1 Guest are viewing this topic.

March 14, 2018, 01:47:51 AM
  • *****************
  • Head Admin
  • Legend Member
  • *****
  • Topic Author
  • Thank You: 6624
  • Reputation: 2902
  • Activity:
    95.2%
  • Country: in
  • Posts: 18725
  • Topics: 10933
  • Join Date: Mar 2012
  • The Time Is Now......



Video
ID                                       : 1
Format                                   : HEVC
Format/Info                              : High Efficiency Video Coding
Codec ID                                 : V_MPEGH/ISO/HEVC
Duration                                 : 2 h 0 min
Bit rate                                 : 1 659 kb/s
Width                                    : 1 920 pixels
Height                                   : 1 080 pixels
Display aspect ratio                     : 16:9
Frame rate mode                          : Constant
Frame rate                               : 23.976 (24000/1001) FPS
Bits/(Pixel*Frame)                       : 0.033
Stream size                              : 1.39 GiB (78%)
Default                                  : Yes
Forced                                   : No

Audio
ID                                       : 3
Format                                   : AC-3
Format/Info                              : Audio Coding 3
Codec ID                                 : A_AC3
Duration                                 : 2 h 0 min
Bit rate mode                            : Constant
Bit rate                                 : 448 kb/s
Channel(s)                               : 6 channels
Channel positions                        : Front: L C R, Side: L R, LFE
Sampling rate                            : 48.0 kHz
Frame rate                               : 31.250 FPS (1536 SPF)
Bit depth                                : 16 bits
Compression mode                         : Lossy
Stream size                              : 385 MiB (21%)
Language                                 : Hindi
Service kind                             : Complete Main
Default                                  : Yes
Forced                                   : No

Text
ID                                       : 2
Format                                   : PGS
Muxing mode                              : zlib
Codec ID                                 : S_HDMV/PGS
Codec ID/Info                            : Picture based subtitle format used on BDs/HD-DVDs
Duration                                 : 1 h 59 min
Bit rate                                 : 30.8 kb/s
Count of elements                        : 3014
Stream size                              : 26.2 MiB (1%)
Default                                  : Yes
Forced                                   : No

Menu
00:00:00.000                             : en:00:00:00.000
00:10:56.155                             : en:00:10:56.155
00:19:16.489                             : en:00:19:16.489
00:30:41.673                             : en:00:30:41.673
00:40:19.667                             : en:00:40:19.667
00:49:56.535                             : en:00:49:56.535
01:01:26.892                             : en:01:01:26.892
01:09:41.552                             : en:01:09:41.552
01:19:18.587                             : en:01:19:18.587
01:30:34.512                             : en:01:30:34.512
01:40:33.569                             : en:01:40:33.569
01:48:43.058                             : en:01:48:43.058
02:00:00.059                             : en:02:00:00.059



















Share this topic on FacebookShare this topic on GoogleShare this topic on MySpaceShare this topic on TwitterShare this topic on Yahoo



Thanks given by:


Tags:
 

Related Topics




Back to top