+ ShareSpark.net »  :::: Dubbed Zone (Dubbed English in Hindi) » English Movies Dubbed in Hindi
|- The Family 2013 720p WEBRIP Hindi GOPISAHI


Redmi 6A

The Family 2013 720p WEBRIP Hindi GOPISAHI

0 Members and 1 Guest are viewing this topic.

March 14, 2018, 06:29:09 AM
  • Addic7ed
  • Special Member
  • ****
  • Topic Author
  • Thank You: 401
  • Reputation: 90
  • Activity:
    0%
  • Country: in
  • Posts: 815
  • Topics: 770
  • Join Date: Oct 2013
  • ShareSpark Member

Format                         : Matroska
Format version                 : Version 4 / Version 2
File size                      : 354 MiB
Duration                       : 1 h 41 min
Overall bit rate               : 487 kb/s
Movie name                     : The Family 2013 GOPISAHI

Video
Format                         : AVC
Codec ID                       : V_MPEG4/ISO/AVC
Duration                       : 1 h 41 min
Bit rate                       : 400 kb/s
Width                          : 1 280 pixels
Height                         : 720 pixels
Display aspect ratio           : 16:9
Frame rate mode                : Constant
Frame rate                     : 30.000 FPS
Stream size                    : 291 MiB (82%)
Title                          : GOPISAHI
Language                       : English

Audio
ID                             : 2
Format                         : AAC
Duration                       : 1 h 41 min
Bit rate                       : 85.1 kb/s
Channel(s)                     : 6 channels
Channel positions              : Front: L C R, Side: L R, LFE
Sampling rate                  : 44.1 kHz
Frame rate                     : 43.066 FPS (1024 SPF)
Compression mode               : Lossy
Stream size                    : 61.9 MiB (17%)
Title                          : GOPISAHI
Language                       : Hindi








Share this topic on FacebookShare this topic on GoogleShare this topic on MySpaceShare this topic on TwitterShare this topic on Yahoo




Tags:
 

Related Topics

  Subject / Started by Replies Last post
0 Replies
542 Views
Last post September 22, 2013, 07:31:57 PM
by мαятιη199631
2 Replies
855 Views
Last post December 09, 2013, 11:30:04 AM
by hunterz007
0 Replies
496 Views
Last post December 06, 2013, 02:24:07 PM
by мαятιη199631
0 Replies
1294 Views
Last post May 07, 2016, 11:25:52 AM
by validusvyto
0 Replies
940 Views
Last post March 11, 2018, 08:32:16 PM
by sagarsingha




Back to top