+ ShareSpark.net »  :::: Dubbed Zone (Dubbed English in Hindi) » English Movies Dubbed in Hindi » Animation Movies
|- Ferdinand 2017 720p Esub BluRay 5.1 Dual Audio English Hindi GOPISAHI


TV and Appliances

Ferdinand 2017 720p Esub BluRay 5.1 Dual Audio English Hindi GOPISAHI

0 Members and 1 Guest are viewing this topic.

March 14, 2018, 03:31:43 PM
  • Addic7ed
  • Special Member
  • ****
  • Topic Author
  • Thank You: 401
  • Reputation: 90
  • Activity:
    0.2%
  • Country: in
  • Posts: 815
  • Topics: 770
  • Join Date: Oct 2013
  • ShareSpark Member

Format                         : Matroska
Format version                 : Version 4 / Version 2
File size                      : 449 MiB
Duration                       : 1 h 48 min
Overall bit rate               : 580 kb/s
Movie name                     : Ferdinand 2017 GOPISAHI

Video
Format                         : AVC
Codec ID                       : V_MPEG4/ISO/AVC
Duration                       : 1 h 48 min
Bit rate                       : 400 kb/s
Width                          : 1 280 pixels
Height                         : 536 pixels
Display aspect ratio           : 2.40:1
Frame rate mode                : Constant
Frame rate                     : 23.976 (24000/1001) FPS
Stream size                    : 309 MiB (69%)
Title                          : GOPISAHI
Writing library                : x264 core 155 r2893 b00bcaf

Audio #1
Format                         : AAC
Duration                       : 1 h 48 min
Bit rate                       : 88.4 kb/s
Channel(s)                     : 6 channels
Channel positions              : Front: L C R, Side: L R, LFE
Sampling rate                  : 44.1 kHz
Frame rate                     : 43.066 FPS (1024 SPF)
Compression mode               : Lossy
Stream size                    : 68.4 MiB (15%)
Language                       : English

Audio #2
Format                         : AAC
Duration                       : 1 h 48 min
Bit rate                       : 89.6 kb/s
Channel(s)                     : 6 channels
Channel positions              : Front: L C R, Side: L R, LFE
Sampling rate                  : 44.1 kHz
Frame rate                     : 43.066 FPS (1024 SPF)
Compression mode               : Lossy
Stream size                    : 69.4 MiB (15%)
Language                       : Hindi

Text
Language                       : English








Share this topic on FacebookShare this topic on GoogleShare this topic on MySpaceShare this topic on TwitterShare this topic on Yahoo




Tags:
 

Related Topics

  Subject / Started by Replies Last post
0 Replies
497 Views
Last post December 15, 2017, 09:20:20 AM
by jattsahi2
2 Replies
549 Views
Last post December 19, 2017, 08:29:07 PM
by jattsahi2
0 Replies
412 Views
Last post January 04, 2018, 10:09:55 AM
by jattsahi2
0 Replies
753 Views
Last post March 01, 2018, 07:30:37 PM
by jattsahi2
0 Replies
529 Views
Last post March 02, 2018, 08:58:31 AM
by jattsahi2




Back to top