+ ShareSpark.net »  :::: Bollywood Zone » Regional Movies » Bengali Movies
|- Jio Pagla 2017 [Bengali] 720p WEB-DL x264 AAC ESub - Hon3yHD [Exclusive]


TV and Appliances

Jio Pagla 2017 [Bengali] 720p WEB-DL x264 AAC ESub - Hon3yHD [Exclusive]

0 Members and 1 Guest are viewing this topic.

March 21, 2018, 10:37:01 PM
  • Elite Forces
  • ****
  • Topic Author
  • Thank You: 231
  • Reputation: 99
  • Activity:
    8.8%
  • Country: sa
  • Posts: 1150
  • Topics: 116
  • Join Date: Jan 2017
  • ShareSpark Member
Jio Pagla 2017 [Bengali] 720p WEB-DL x264 AAC ESub - Hon3yHD [Exclusive]



Format                                   : MPEG-4
Format profile                           : Base Media
Codec ID                                 : isom (isom/iso2/avc1/mp41)
File size                                : 2.10 GiB
Duration                                 : 2 h 25 min
Overall bit rate mode                    : Constant
Overall bit rate                         : 2 066 kb/s


Video
ID                                       : 1
Format                                   : AVC
Format/Info                              : Advanced Video Codec
Format profile                           : [email protected]
Format settings                          : CABAC / 1 Ref Frames
Format settings, CABAC                   : Yes
Format settings, RefFrames               : 1 frame
Format settings, GOP                     : M=1, N=25
Codec ID                                 : avc1
Codec ID/Info                            : Advanced Video Coding
Duration                                 : 2 h 25 min
Bit rate mode                            : Constant
Bit rate                                 : 2 000 kb/s
Width                                    : 1 280 pixels
Height                                   : 720 pixels
Display aspect ratio                     : 16:9
Frame rate mode                          : Constant
Frame rate                               : 25.000 FPS
Color space                              : YUV
Chroma subsampling                       : 4:2:0
Bit depth                                : 8 bits
Scan type                                : Progressive
Bits/(Pixel*Frame)                       : 0.087
Stream size                              : 2.03 GiB (97%)

Audio
ID                                       : 2
Format                                   : AAC
Format/Info                              : Advanced Audio Codec
Format profile                           : LC
Codec ID                                 : mp4a-40-2
Duration                                 : 2 h 25 min
Bit rate mode                            : Constant
Bit rate                                 : 61.4 kb/s
Channel(s)                               : 2 channels
Channel positions                        : Front: L R
Sampling rate                            : 48.0 kHz
Frame rate                               : 46.875 FPS (1024 SPF)
Compression mode                         : Lossy
Stream size                              : 63.9 MiB (3%)
Default                                  : Yes
Alternate group                          : 1



Quote

Share this topic on FacebookShare this topic on GoogleShare this topic on MySpaceShare this topic on TwitterShare this topic on Yahoo

« Last Edit: March 22, 2018, 11:59:06 PM by Vagabond »


Thanks given by:


March 22, 2018, 11:58:08 AM
Reply #1
  • Newbie
  • **
  • Thank You: 0
  • Reputation: 0
  • Activity:
    0%
  • Country: in
  • Posts: 3
  • Topics: 0
  • Join Date: Nov 2016
  • ShareSpark Member
Brother this 2 link is not working so please kindly I request you to
Re upload this movie in other link or other side.
« Last Edit: March 27, 2018, 02:32:16 PM by syrena »

March 22, 2018, 04:26:20 PM
Reply #2
  • Newbie
  • **
  • Thank You: 0
  • Reputation: 0
  • Activity:
    0%
  • Country: bd
  • Posts: 1
  • Topics: 0
  • Join Date: Mar 2018
  • ShareSpark Member

March 23, 2018, 12:02:03 AM
Reply #3
  • Elite Forces
  • ****
  • Topic Author
  • Thank You: 231
  • Reputation: 99
  • Activity:
    8.8%
  • Country: sa
  • Posts: 1150
  • Topics: 116
  • Join Date: Jan 2017
  • ShareSpark Member
Brother this 2 link is not working so please kindly I request you to
Re upload this movie in other link or other side.

link change new link added  :thumbs:

Tags:
 

Related Topics

  Subject / Started by Replies Last post
0 Replies
1303 Views
Last post November 15, 2017, 04:38:12 PM
by PSYCHO
2 Replies
1350 Views
Last post January 01, 2018, 10:53:18 PM
by sagarsingha
0 Replies
1137 Views
Last post January 07, 2018, 07:01:14 PM
by UnikAaYush
0 Replies
1149 Views
Last post February 05, 2018, 11:03:11 AM
by Pherarim
0 Replies
861 Views
Last post September 01, 2018, 03:02:00 PM
by shahzaibjaan




Back to top