+ ShareSpark.net »  :::: Bollywood Zone » Bollywood Movies (Original Rips)
|- The Black Prince 2017 Esub HD 720p Hindi GOPISAHI 450MB [Drive]


100% Bill Offer

The Black Prince 2017 Esub HD 720p Hindi GOPISAHI 450MB [Drive]

0 Members and 1 Guest are viewing this topic.

April 13, 2018, 08:56:27 AM
  • Addic7ed
  • Royal Member
  • ****
  • Topic Author
  • Thank You: 525
  • Reputation: 189
  • Activity:
    0%
  • Country: np
  • Posts: 1074
  • Topics: 702
  • Join Date: May 2017
  • #Me

Adventure, Comedy, Crime, Music, Musical


 :plot:
Format                         : Matroska
Format version                 : Version 4 / Version 2
File size                      : 483 MiB
Duration                       : 2 h 0 min
Overall bit rate               : 559 kb/s
Movie name                     : The Black Prince 2017 GOPISAHI

Video
Format                         : AVC
Codec ID                       : V_MPEG4/ISO/AVC
Duration                       : 2 h 0 min
Bit rate                       : 500 kb/s
Width                          : 1 280 pixels
Height                         : 530 pixels
Display aspect ratio           : 2.40:1
Original display aspect ratio  : 2.40:1
Frame rate mode                : Constant
Frame rate                     : 25.000 FPS
Color space                    : YUV
Chroma subsampling             : 4:2:0
Stream size                    : 432 MiB (89%)
Title                          : GOPISAHI
Writing library                : x264 core 155 r2893 b00bcaf
Language                       : Hindi

Audio
Format                         : AAC
Duration                       : 2 h 0 min
Bit rate                       : 56.6 kb/s
Channel(s)                     : 6 channels
Channel positions              : Front: L C R, Side: L R, LFE
Sampling rate                  : 44.1 kHz
Frame rate                     : 43.066 FPS (1024 SPF)
Compression mode               : Lossy
Stream size                    : 49.0 MiB (10%)
Title                          : GOPISAHI
Language                       : Hindi

Text
English


 :ss: :ss:




 :download: :download:




Share this topic on FacebookShare this topic on GoogleShare this topic on MySpaceShare this topic on TwitterShare this topic on Yahoo

« Last Edit: April 13, 2018, 06:30:42 PM by тнє ωαll 81317 »


Thanks given by:


Tags:
 

Related Topics

  Subject / Started by Replies Last post
0 Replies
890 Views
Last post November 05, 2017, 08:11:16 AM
by jattsahi2
0 Replies
482 Views
Last post February 13, 2018, 11:57:34 AM
by jattsahi2
0 Replies
443 Views
Last post February 23, 2018, 02:04:06 PM
by jattsahi2
0 Replies
810 Views
Last post April 11, 2018, 07:22:28 AM
by UnikAaYush
2 Replies
1215 Views
Last post April 27, 2018, 07:54:55 AM
by UnikAaYush




Back to top