+ ShareSpark.net »  :::: Bollywood Zone » Bollywood Movies (Original Rips)
|- The Black Prince (2017) 720p WEB-HD x264 AC3 DD5.1 ~ Ranvijay


The Black Prince (2017) 720p WEB-HD x264 AC3 DD5.1 ~ Ranvijay

0 Members and 1 Guest are viewing this topic.

April 13, 2018, 06:51:50 PM
  • Global Moderator
  • Legend Member
  • *****
  • Topic Author
  • Thank You: 13823
  • Reputation: 2814
  • Activity:
    76.8%
  • Country: in
  • Posts: 6102
  • Topics: 4989
  • Join Date: Jan 2014
  • ıllıllı ѕмoĸιng ιѕ good ғor нealтн ıllıllı :)



The Black Prince (2017) 720p WEB-HD x264 AC3 DD5.1 ~ Ranvijay

Source Lottery @ DTONE

Buy RDP Online


Quote
Format                                   : Matroska
Format version                           : Version 4 / Version 2
File size                                : 1.03 GiB
Duration                                 : 2 h 0 min
Overall bit rate                         : 1 223 kb/s
Movie name                               : The Black Prince (2017) 720p x264 AC3 DD5.1 ~ Ranvijay

Video
Duration                                 : 2 h 0 min
Bit rate                                 : 1 000 kb/s
Width                                    : 1 280 pixels
Height                                   : 530 pixels
Display aspect ratio                     : 2.40:1
Original display aspect ratio            : 2.40:1
Frame rate mode                          : Constant
Frame rate                               : 24.000 FPS
Stream size                              : 862 MiB (82%)
Title                                    : ~Ranvijay~
Default                                  : Yes
Forced                                   : No

Audio
ID                                       : 2
Format                                   : AC-3
Format/Info                              : Audio Coding 3
Codec ID                                 : A_AC3
Duration                                 : 2 h 0 min
Bit rate mode                            : Constant
Bit rate                                 : 224 kb/s
Channel(s)                               : 6 channels
Channel positions                        : Front: L C R, Side: L R, LFE
Sampling rate                            : 48.0 kHz
Frame rate                               : 31.250 FPS (1536 SPF)
Bit depth                                : 16 bits
Compression mode                         : Lossy
Delay relative to video                  : -5 ms
Stream size                              : 194 MiB (18%)
Title                                    : ~Ranvijay~
Language                                 : Hindi
Service kind                             : Complete Main
Default                                  : Yes
Forced                                   : No









:download:

Quote














File Leeched & Uploaded From




Don't walk as you are king, walk as you don't care who the king is....!!
Never argue with an idiot. They drag you down to their level and then beat you with experience?

Share this topic on FacebookShare this topic on GoogleShare this topic on MySpaceShare this topic on TwitterShare this topic on Yahoo

« Last Edit: April 13, 2018, 07:08:06 PM by Rάήνίјάч1234 »



Don't walk as you are king, walk as you don't care who the king is....!!

Thanks given by:


April 17, 2018, 04:04:51 PM
Reply #1
  • Elite Member
  • ***
  • Thank You: 0
  • Reputation: 51
  • Activity:
    0%
  • Posts: 458
  • Topics: 0
  • Join Date: Nov 2012
  • ShareSpark Member

Tags:
 

Related Topics

  Subject / Started by Replies Last post
0 Replies
838 Views
Last post August 23, 2016, 06:55:36 PM
by DjiSamSoe
0 Replies
931 Views
Last post October 19, 2016, 09:18:53 PM
by DjiSamSoe
0 Replies
942 Views
Last post July 23, 2017, 05:50:53 PM
by jamez.bond.3304
0 Replies
568 Views
Last post April 13, 2018, 08:56:27 AM
by UnikAaYush
1 Replies
912 Views
Last post April 13, 2018, 03:55:35 PM
by UnikAaYush




Back to top