+ ShareSpark.net »  :::: Bollywood Zone » Indian PC Videos
|- MR & MRS KHILADI ( 1997 ) 1080p Untouched Webhd All Music Videos ( ISRHD )


MR & MRS KHILADI ( 1997 ) 1080p Untouched Webhd All Music Videos ( ISRHD )

0 Members and 1 Guest are viewing this topic.

April 18, 2018, 01:15:12 AM
  • Royal Member
  • ****
  • Topic Author
  • Thank You: 198
  • Reputation: 87
  • Activity:
    28.2%
  • Country: sa
  • Posts: 1070
  • Topics: 108
  • Join Date: Jan 2017
  • ShareSpark Member
MR & MRS KHILADI ( 1997 ) 1080p Untouched Webhd All Music Videos ( ISRHD )



     Format : MPEG-4
     Format profile : Base Media / Version 2
     Codec ID : mp42
     File size : 369 MiB
     Duration : 6mn 12s
     Overall bit rate : 8 315 Kbps
  Video
     Format : AVC
     Format/Info : Advanced Video Codec
     Format profile : [email protected]
     Format settings, CABAC : Yes
     Format settings, ReFrames : 3 frames
     Codec ID : avc1
     Codec ID/Info : Advanced Video Coding
     Duration : 6mn 11s
     Bit rate mode : Variable
     Bit rate : 7 994 Kbps
     Width : 1 920 pixels
     Height : 1 080 pixels
     Display aspect ratio : 16:9
     Frame rate mode : Constant
     Frame rate : 25.000 fps
     Standard : PAL
     Resolution : 24 bits
     Colorimetry : 4:2:0
     Scan type : Progressive
     Bits/(Pixel*Frame) : 0.154
     Stream size : 354 MiB (96%)
 Audio
     Format : AAC
     Format/Info : Advanced Audio Codec
     Format version : Version 4
     Format profile : LC
     Format settings, SBR : No
     Codec ID : 40
     Duration : 6mn 12s
     Bit rate mode : Variable
     Bit rate : 317 Kbps
     Maximum bit rate : 423 Kbps
     Channel(s) : 2 channels
     Channel positions : L R
     Sampling rate : 48.0 KHz
     Resolution : 16 bits
     Stream size : 14.1 MiB (4%)




Quote






Quote



Share this topic on FacebookShare this topic on GoogleShare this topic on MySpaceShare this topic on TwitterShare this topic on Yahoo



Thanks given by:


April 18, 2018, 08:25:30 AM
Reply #1
  • Royal Member
  • ****
  • Thank You: 697
  • Reputation: 343
  • Activity:
    100%
  • Country: np
  • Posts: 942
  • Topics: 517
  • Join Date: Jul 2016
  • ShareSpark Member

April 19, 2018, 06:27:40 PM
Reply #2
  • Devoted Member
  • **
  • Thank You: 32
  • Reputation: 26
  • Activity:
    0.2%
  • Country: bd
  • Posts: 178
  • Topics: 23
  • Join Date: Jun 2013
  • ShareSpark Member

Tags:
 

Related Topics

  Subject / Started by Replies Last post
0 Replies
727 Views
Last post April 19, 2015, 09:22:50 AM
by ddr_mizu
0 Replies
630 Views
Last post April 19, 2015, 06:45:50 PM
by lovely1629
0 Replies
694 Views
Last post August 23, 2015, 10:46:23 AM
by -Ð@Rk.ÐèVi£-
1 Replies
1078 Views
Last post May 02, 2017, 07:36:43 PM
by shanto
1 Replies
618 Views
Last post December 25, 2017, 11:25:19 PM
by Raftaar1234



Back to top