+ ShareSpark.net »  :::: Dubbed Zone (Dubbed English in Hindi) » English Movies Dubbed in Hindi
|- Bullet To The Head 2012 720p Esub BluRay 5.1 Dual Audio English Hindi GOPISAHI [Drive]

10% Off with Visa

Bullet To The Head 2012 720p Esub BluRay 5.1 Dual Audio English Hindi GOPISAHI [Drive]

0 Members and 1 Guest are viewing this topic.

April 26, 2018, 11:41:36 AM
  • Addic7ed
  • Royal Member
  • ****
  • Topic Author
  • Thank You: 499
  • Reputation: 183
  • Activity:
    72.8%
  • Country: np
  • Posts: 1077
  • Topics: 702
  • Join Date: May 2017
  • #Me


Format : Matroska
Format version : Version 4 / Version 2
File size : 507 MiB
Duration : 1 h 31 min
Overall bit rate : 775 kb/s
Movie name : Bullet To The Head 2012

Video
Format : AVC
Format/Info : Advanced Video Codec
Codec ID : V_MPEG4/ISO/AVC
Duration : 1 h 31 min
Bit rate : 600 kb/s
Width : 1 280 pixels
Height : 688 pixels
Display aspect ratio : 1.85:1
Frame rate mode : Constant
Frame rate : 23.976 (24000/1001) FPS
Stream size : 393 MiB (77%)
Title : GOPISAHI.BID
Writing library : x264 core 148 r2708 86b7198

Audio #1
ID : 2
Format : AAC
Duration : 1 h 31 min
Bit rate : 87.8 kb/s
Channel(s) : 6 channels
Channel positions : Front: L C R, Side: L R, LFE
Sampling rate : 44.1 kHz
Frame rate : 43.066 FPS (1024 SPF)
Compression mode : Lossy
Stream size : 57.5 MiB (11%)
Language : Hindi

Audio #2
Format : AAC
Duration : 1 h 31 min
Bit rate : 84.3 kb/s
Channel(s) : 6 channels
Channel positions : Front: L C R, Side: L R, LFE
Sampling rate : 44.1 kHz
Frame rate : 43.066 FPS (1024 SPF)
Compression mode : Lossy
Stream size : 55.2 MiB (11%)
Language : English

Text
Language : English


 :ss: :ss:



 :download: :download:

Share this topic on FacebookShare this topic on GoogleShare this topic on MySpaceShare this topic on TwitterShare this topic on Yahoo




Tags:
 

Related Topics




Back to top