+ ShareSpark.net »  :::: Dubbed Zone (Dubbed English in Hindi) » English Movies Dubbed in Hindi
|- Curse of the Ring 2004 Esub DVD Dual Audio English Hindi GOPISAHI [Drive]

Pantry 600 Back

Curse of the Ring 2004 Esub DVD Dual Audio English Hindi GOPISAHI [Drive]

0 Members and 1 Guest are viewing this topic.

April 26, 2018, 04:34:07 PM
  • Addic7ed
  • Royal Member
  • ****
  • Topic Author
  • Thank You: 499
  • Reputation: 183
  • Activity:
    72.8%
  • Country: np
  • Posts: 1077
  • Topics: 702
  • Join Date: May 2017
  • #Me


 :plot:

 Format                         : Matroska
Format version                 : Version 4 / Version 2
File size                      : 557 MiB
Duration                       : 3 h 0 min
Overall bit rate               : 432 kb/s
Movie name                     : Curse of the Ring 2004
Video
Format                         : AVC
Codec ID                       : V_MPEG4/ISO/AVC
Duration                       : 3 h 0 min
Bit rate                       : 250 kb/s
Width                          : 720 pixels
Height                         : 404 pixels
Display aspect ratio           : 16:9
Original display aspect ratio  : 16:9
Frame rate mode                : Constant
Frame rate                     : 25.000 FPS
Stream size                    : 322 MiB (58%)
Writing library                : x264 core 148 r2708 86b7198

Audio #1
Format                         : AC-3
Duration                       : 3 h 0 min
Bit rate mode                  : Constant
Bit rate                       : 96.0 kb/s
Channel(s)                     : 6 channels
Channel positions              : Front: L C R, Side: L R, LFE
Sampling rate                  : 44.1 kHz
Frame rate                     : 28.711 FPS (1536 SPF)
Stream size                    : 124 MiB (22%)
Language                       : English

Audio #2
Format                         : AAC
Duration                       : 3 h 0 min
Bit rate                       : 83.5 kb/s
Channel(s)                     : 6 channels
Channel positions              : Front: L C R, Side: L R, LFE
Sampling rate                  : 44.1 kHz
Frame rate                     : 43.066 FPS (1024 SPF)
Compression mode               : Lossy
Stream size                    : 108 MiB (19%)
Language                       : Hindi

Text #1
Language                       : English

Text #2
Language                       : Hindi


 :ss: :ss:




 :download: :download:

Share this topic on FacebookShare this topic on GoogleShare this topic on MySpaceShare this topic on TwitterShare this topic on Yahoo




Tags:
 

Related Topics




Back to top