+ ShareSpark.net »  :::: Dubbed Zone (Dubbed English in Hindi) » English Movies Dubbed in Hindi
|- Hotel Rwanda 2004 720p Esub BlyRay Dual Audio English Hindi GOPISAHI [Drive]

Mobile Recharge Offer 20% Off

Hotel Rwanda 2004 720p Esub BlyRay Dual Audio English Hindi GOPISAHI [Drive]

0 Members and 1 Guest are viewing this topic.

April 26, 2018, 05:09:19 PM
  • Addic7ed
  • Royal Member
  • ****
  • Topic Author
  • Thank You: 505
  • Reputation: 185
  • Activity:
    12.2%
  • Country: np
  • Posts: 1077
  • Topics: 702
  • Join Date: May 2017
  • #Me


 :plot:

Format                         : Matroska
Format version                 : Version 4 / Version 2
File size                      : 804 MiB
Duration                       : 2 h 1 min
Overall bit rate               : 923 kb/s
Movie name                     : Hotel Rwanda 2004 GOPISAHI
Video
Format                         : AVC
Codec ID                       : V_MPEG4/ISO/AVC
Duration                       : 2 h 1 min
Bit rate                       : 748 kb/s
Width                          : 1 280 pixels
Height                         : 544 pixels
Display aspect ratio           : 2.35:1
Frame rate mode                : Constant
Frame rate                     : 23.976 (24000/1001) FPS
Stream size                    : 652 MiB (81%)
Writing library                : x264 core 142 r2479 dd79a61

Audio #1
Format                         : AAC
Duration                       : 2 h 1 min
Bit rate                       : 87.8 kb/s
Channel(s)                     : 6 channels
Channel positions              : Front: L C R, Side: L R, LFE
Sampling rate                  : 44.1 kHz
Frame rate                     : 43.066 FPS (1024 SPF)
Compression mode               : Lossy
Delay relative to video        : -42 ms
Stream size                    : 76.5 MiB (10%)
Language                       : English

Audio #2
Format                         : AAC
Duration                       : 2 h 1 min
Bit rate                       : 84.2 kb/s
Channel(s)                     : 6 channels
Channel positions              : Front: L C R, Side: L R, LFE
Sampling rate                  : 44.1 kHz
Frame rate                     : 43.066 FPS (1024 SPF)
Compression mode               : Lossy
Stream size                    : 73.4 MiB (9%)
Language                       : Hindi
No

Text
Language                       : English


 :ss: :ss:




 :download: :download:

Share this topic on FacebookShare this topic on GoogleShare this topic on MySpaceShare this topic on TwitterShare this topic on Yahoo




Tags:
 

Related Topics




Back to top