+ ShareSpark.net »  :::: Bollywood Zone » Indian TV Shows
|- SRH vs KXI HIGHLIGHTS Match 25 1080p x264 WEB-DL AAC [Team SSX]


100% Bill Offer

SRH vs KXI HIGHLIGHTS Match 25 1080p x264 WEB-DL AAC [Team SSX]

0 Members and 1 Guest are viewing this topic.

April 29, 2018, 06:39:36 AM
  • *****************
  • Head Admin
  • Legend Member
  • *****
  • Topic Author
  • Thank You: 6903
  • Reputation: 2991
  • Activity:
    82.6%
  • Country: in
  • Posts: 19037
  • Topics: 11071
  • Join Date: Mar 2012
  • The Time Is Now......
SRH vs KXI HIGHLIGHTS Match 25 1080p x264 WEB-DL AAC [Team SSX]

General

Format                                   : Matroska
Format version                           : Version 4 / Version 2
File size                                : 477 MiB
Duration                                 : 14 min 36 s
Overall bit rate                         : 4 565 kb/s


Video
ID                                       : 1
Format                                   : AVC
Format/Info                              : Advanced Video Codec
Format profile                           : [email protected]
Format settings                          : 1 Ref Frames
Format settings, CABAC                   : No
Format settings, RefFrames               : 1 frame
Codec ID                                 : V_MPEG4/ISO/AVC
Duration                                 : 14 min 36 s
Bit rate mode                            : Constant
Bit rate                                 : 4 500 kb/s
Width                                    : 1 920 pixels
Height                                   : 1 080 pixels
Display aspect ratio                     : 16:9
Frame rate mode                          : Constant
Frame rate                               : 25.000 FPS
Color space                              : YUV
Chroma subsampling                       : 4:2:0
Bit depth                                : 8 bits
Scan type                                : Progressive
Bits/(Pixel*Frame)                       : 0.087
Stream size                              : 470 MiB (99%)
Default                                  : Yes
Forced                                   : No

Audio
ID                                       : 2
Format                                   : AAC
Format/Info                              : Advanced Audio Codec
Format profile                           : LC
Codec ID                                 : A_AAC-2
Duration                                 : 14 min 36 s
Bit rate                                 : 61.4 kb/s
Channel(s)                               : 2 channels
Channel positions                        : Front: L R
Sampling rate                            : 48.0 kHz
Frame rate                               : 46.875 FPS (1024 SPF)
Compression mode                         : Lossy
Delay relative to video                  : -33 ms
Stream size                              : 6.41 MiB (1%)
Language                                 : English
Default                                  : Yes
Forced                                   : No





























Share this topic on FacebookShare this topic on GoogleShare this topic on MySpaceShare this topic on TwitterShare this topic on Yahoo




April 29, 2018, 01:19:48 PM
Reply #1
  • ***************
  • Team SSX
  • Legend Member
  • ***
  • Thank You: 1846
  • Reputation: 553
  • Activity:
    100%
  • Country: pk
  • Posts: 1965
  • Topics: 1248
  • Join Date: Mar 2015
  • =$ Success Never Ends $=

Tags:
 

Related Topics

  Subject / Started by Replies Last post
1 Replies
533 Views
Last post April 08, 2018, 01:04:40 PM
by bikash0096
1 Replies
334 Views
Last post April 09, 2018, 09:40:32 AM
by UnikAaYush
1 Replies
344 Views
Last post April 09, 2018, 09:39:48 AM
by UnikAaYush
0 Replies
327 Views
Last post April 29, 2018, 06:41:13 AM
by -Ð@Rk.ÐèVi£-
0 Replies
319 Views
Last post April 29, 2018, 06:42:47 AM
by -Ð@Rk.ÐèVi£-




Back to top