+ ShareSpark.net »  :::: Bollywood Zone » Regional Movies » Punjabi Movies
|- Laung Laachi 2018 HD RIP Punjabi GOPISAHI


100% Bill Offer

Laung Laachi 2018 HD RIP Punjabi GOPISAHI

0 Members and 1 Guest are viewing this topic.

May 01, 2018, 07:42:29 AM
  • Addic7ed
  • Special Member
  • ****
  • Topic Author
  • Thank You: 401
  • Reputation: 90
  • Activity:
    0.2%
  • Country: in
  • Posts: 815
  • Topics: 770
  • Join Date: Oct 2013
  • ShareSpark Member

Format                         : Matroska
Format version                 : Version 4 / Version 2
File size                      : 580 MiB
Duration                       : 1 h 56 min
Overall bit rate               : 698 kb/s
Movie name                     : Laung Laachi 2018 HD RIP Punjabi GOPISAHI

Video
Format                         : AVC
Codec ID                       : V_MPEG4/ISO/AVC
Duration                       : 1 h 56 min
Bit rate                       : 600 kb/s
Width                          : 720 pixels
Height                         : 404 pixels
Display aspect ratio           : 16:9
Frame rate mode                : Constant
Frame rate                     : 25.000 FPS
Stream size                    : 498 MiB (86%)
Title                          : Laung Laachi 2018 HD RIP Punjabi GOPISAHI
Writing library                : x264 core 148 r2708 86b7198
Language                       : Panjabi

Audio
Format                         : AAC
Duration                       : 1 h 56 min
Bit rate                       : 96.0 kb/s
Channel(s)                     : 2 channels
Channel positions              : Front: L R
Sampling rate                  : 44.1 kHz
Frame rate                     : 43.066 FPS (1024 SPF)
Compression mode               : Lossy
Delay relative to video        : -46 ms
Stream size                    : 79.8 MiB (14%)
Title                          : Laung Laachi 2018 HD RIP Punjabi GOPISAHI
Language                       : Panjabi















Share this topic on FacebookShare this topic on GoogleShare this topic on MySpaceShare this topic on TwitterShare this topic on Yahoo



Thanks given by:


May 01, 2018, 01:49:53 PM
Reply #1
  • Addic7ed
  • Legend Member
  • ****
  • Thank You: 84
  • Reputation: 40
  • Activity:
    38.4%
  • Posts: 1654
  • Topics: 131
  • Join Date: May 2012
  • ShareSpark Member

August 01, 2018, 07:23:57 PM
Reply #2
  • ***************
  • Team SSX
  • Legend Member
  • ***
  • Thank You: 1778
  • Reputation: 546
  • Activity:
    100%
  • Country: pk
  • Posts: 1872
  • Topics: 1163
  • Join Date: Mar 2015
  • =$ Success Never Ends $=

Tags:
 

Related Topics

  Subject / Started by Replies Last post
0 Replies
1035 Views
Last post March 10, 2018, 09:15:09 PM
by jattsahi2
0 Replies
1235 Views
Last post March 12, 2018, 02:03:51 PM
by jattsahi2
1 Replies
1508 Views
Last post May 02, 2018, 10:26:57 PM
by Spider King
0 Replies
689 Views
Last post August 03, 2018, 02:20:30 PM
by shahzaibjaan
1 Replies
1036 Views
Last post August 31, 2018, 09:58:05 AM
by Maher manav




Back to top