+ ShareSpark.net »  :::: Bollywood Zone » Indian TV Shows
|- Gandii Baat Season 1 All 4 Episodes 1080p HDRip AAC - Jio By Aayush


Gandii Baat Season 1 All 4 Episodes 1080p HDRip AAC - Jio By Aayush

0 Members and 1 Guest are viewing this topic.

May 13, 2018, 06:23:37 PM
  • Addic7ed
  • Royal Member
  • ****
  • Topic Author
  • Thank You: 525
  • Reputation: 189
  • Activity:
    0%
  • Country: np
  • Posts: 1073
  • Topics: 702
  • Join Date: May 2017
  • #Me
Gandii Baat Season 1 All 4 Episodes 1080p HDRip AAC -By Aayush




 :plot:
Movie Info

Format : Matroska
Format version : Version 4 / Version 2
File size : 3.23 GiB
Duration : 45 min 4 s
Overall bit rate : 10.3 Mb/s
Encoded date : UTC 2018-05-04 14:18:59
Writing application : mkvmerge v15.0.0 ('Duel with the Devil') 64-bit
Writing library : libebml v1.3.5 + libmatroska v1.4.5

Video
ID : 1
Format : AVC
Format/Info : Advanced Video Codec
Format profile : [email protected]
Format settings : CABAC / 2 Ref Frames
Format settings, CABAC : Yes
Format settings, RefFrames : 2 frames
Codec ID : V_MPEG4/ISO/AVC
Duration : 45 min 4 s
Bit rate mode : Constant
Bit rate : 10 000 kb/s
Width : 1 920 pixels
Height : 1 080 pixels
Display aspect ratio : 16:9
Frame rate mode : Constant
Frame rate : 60.000 FPS
Color space : YUV
Chroma subsampling : 4:2:0
Bit depth : 8 bits
Scan type : Progressive
Bits/(Pixel*Frame) : 0.080
Stream size : 3.13 GiB (97%)
Default : Yes
Forced : No
Color range : Limited
Matrix coefficients : BT.470 System B, BT.470 System G

Audio
ID : 2
Format : AAC
Format/Info : Advanced Audio Codec
Format profile : LC
Codec ID : A_AAC-2
Duration : 45 min 4 s
Bit rate : 320 kb/s
Channel(s) : 2 channels
Channel positions : Front: L R
Sampling rate : 44.1 kHz
Frame rate : 43.066 FPS (1024 SPF)
Compression mode : Lossy
Stream size : 103 MiB (3%)
Language : Hindi
Default : Yes
Forced : No


 :ss: :ss:





 :download: :download:
Episode-1 [3.23GB]



Episode-2 [2.75GB]



Episode-3 [2.69GB]



Episode-4 [2.45GB]


Enjoy....!!!

Share this topic on FacebookShare this topic on GoogleShare this topic on MySpaceShare this topic on TwitterShare this topic on Yahoo

« Last Edit: May 14, 2018, 09:31:13 AM by тнє ωαll 81317 »


Thanks given by:


May 14, 2018, 02:22:09 AM
Reply #1
  • Begginer
  • **
  • Thank You: 0
  • Reputation: 0
  • Activity:
    0%
  • Country: in
  • Posts: 78
  • Topics: 0
  • Join Date: Apr 2016
  • ShareSpark Member

May 14, 2018, 12:31:18 PM
Reply #2
  • Semi Newbie
  • **
  • Thank You: 0
  • Reputation: 2
  • Activity:
    0%
  • Country: my
  • Posts: 33
  • Topics: 0
  • Join Date: Mar 2018
  • ShareSpark Member

May 19, 2018, 06:58:15 PM
Reply #3
  • Begginer
  • **
  • Thank You: 3
  • Reputation: 2
  • Activity:
    0%
  • Posts: 97
  • Topics: 5
  • Join Date: Oct 2014
  • ShareSpark Member

May 23, 2018, 01:16:03 AM
Reply #4
  • Newbie
  • **
  • Thank You: 0
  • Reputation: 0
  • Activity:
    0%
  • Country: in
  • Posts: 2
  • Topics: 0
  • Join Date: Oct 2017
  • ShareSpark Member

Tags: aayush 1000post 
 

Related Topics





Back to top