+ ShareSpark.net »  :::: Bollywood Zone » Indian TV Shows
|- 62nd JIO Filmfare Awards (2017) HDRip 720p Hindi H.264 AAC mkv (1.9 GB)

Mobile Recharge Offer 20% Off

62nd JIO Filmfare Awards (2017) HDRip 720p Hindi H.264 AAC mkv (1.9 GB)

0 Members and 1 Guest are viewing this topic.

May 28, 2018, 10:11:18 PM
  • Special Member
  • ****
  • Topic Author
  • Thank You: 711
  • Reputation: 401
  • Activity:
    100%
  • Country: pk
  • Posts: 787
  • Topics: 359
  • Join Date: Mar 2015
  • ShareSpark Member
62nd JIO Filmfare Awards (2017) HDRip 720p Hindi H.264 AAC mkv (1.9 GB)






 :imdb:

General
 
Format : Matroska
Format version : Version 4 / Version 2
File size : 1.90 GiB
Duration : 3 h 7 min
Overall bit rate : 1 452 kb/s
Encoded date : UTC 2018-05-10 11:26:36
Writing application : mkvmerge v21.0.0 ('Tardigrades Will Inherit The Earth') 32-bit
Writing library : libebml v1.3.5 + libmatroska v1.4.8
Cover : Yes
Attachments : Cover.png

Video
ID : 1
Format : AVC
Format/Info : Advanced Video Codec
Format profile : [email protected]
Format settings : 3 Ref Frames
Format settings, CABAC : No
Format settings, ReFrames : 3 frames
Codec ID : V_MPEG4/ISO/AVC
Duration : 3 h 7 min
Bit rate : 1 360 kb/s
Width : 1 280 pixels
Height : 720 pixels
Display aspect ratio : 16:9
Frame rate mode : Constant
Frame rate : 25.000 FPS
Color space : YUV
Chroma subsampling : 4:2:0
Bit depth : 8 bits
Scan type : Progressive
Bits/(Pixel*Frame) : 0.059
Stream size : 1.77 GiB (93%)
Language : Hindi
Default : Yes
Forced : No

Audio
ID : 2
Format : AAC
Format/Info : Advanced Audio Codec
Format profile : LC
Codec ID : A_AAC-2
Duration : 3 h 7 min
Bit rate : 96.0 kb/s
Channel(s) : 2 channels
Channel positions : Front: L R
Sampling rate : 44.1 kHz
Frame rate : 43.066 FPS (1024 SPF)
Compression mode : Lossy
Delay relative to video : -36 ms
Stream size : 129 MiB (7%)
Language : Hindi
Default : Yes
Forced : No





  :download: :download:

Quote








Share this topic on FacebookShare this topic on GoogleShare this topic on MySpaceShare this topic on TwitterShare this topic on Yahoo




Tags:
 

Related Topics

  Subject / Started by Replies Last post
6 Replies
1979 Views
Last post September 07, 2013, 09:52:29 AM
by sandeepbarath
0 Replies
617 Views
Last post February 09, 2015, 03:39:03 PM
by saifurbd94
2 Replies
1641 Views
Last post February 19, 2017, 11:39:55 PM
by -SHADNAN-
2 Replies
1339 Views
Last post February 19, 2017, 11:36:49 PM
by -SHADNAN-
4 Replies
2074 Views
Last post June 18, 2017, 05:34:25 PM
by ~DoSANJiT



Back to top