+ ShareSpark.net »  :::: Bollywood Zone » Bollywood Movies (Original Rips)
|- Blackmail (2018) 720p WEB-HD x264 AAC - Esub ~ Ranvijay

Mobile Recharge Offer 20% Off
  • Blackmail (2018) 720p WEB-HD x264 AAC - Esub ~ Ranvijay 5 1
Currently:  

Blackmail (2018) 720p WEB-HD x264 AAC - Esub ~ Ranvijay

0 Members and 1 Guest are viewing this topic.

June 15, 2018, 01:04:58 PM
  • Global Moderator
  • Legend Member
  • *****
  • Topic Author
  • Thank You: 7659
  • Reputation: 1693
  • Activity:
    100%
  • Country: in
  • Posts: 4521
  • Topics: 3767
  • Join Date: Jan 2014
  • ıllıllı ѕмoĸιng ιѕ good ғor нealтн ıllıllı :)


Blackmail (2018) 720p WEB-HD x264 AAC - Esub ~ Ranvijay

Source :- DTOne


Buy RDP Online


Quote
Format                                   : Matroska
Format version                           : Version 4 / Version 2
File size                                : 1.47 GiB
Duration                                 : 2 h 17 min
Overall bit rate                         : 1 533 kb/s
Movie name                               : Blackmail (2018) 720p WEB-HD x264 AAC - Esub ~ Ranvijay

Video
ID                                       : 1
Format                                   : AVC
Duration                                 : 2 h 17 min
Bit rate                                 : 1 242 kb/s
Width                                    : 1 280 pixels
Height                                   : 542 pixels
Display aspect ratio                     : 2.35:1
Original display aspect ratio            : 2.35:1
Frame rate mode                          : Constant
Frame rate                               : 23.976 (23976/1000) FPS
Color space                              : YUV
Chroma subsampling                       : 4:2:0
Bit depth                                : 8 bits
Scan type                                : Progressive
Bits/(Pixel*Frame)                       : 0.075
Stream size                              : 1.19 GiB (81%)
Title                                    : ~Ranvijay~
Default                                  : Yes
Forced                                   : No

Audio
ID                                       : 2
Format                                   : AAC
Format/Info                              : Advanced Audio Codec
Format profile                           : LC
Codec ID                                 : A_AAC-2
Duration                                 : 2 h 17 min
Bit rate                                 : 288 kb/s
Channel(s)                               : 2 channels
Channel positions                        : Front: L R
Sampling rate                            : 48.0 kHz
Frame rate                               : 46.875 FPS (1024 SPF)
Compression mode                         : Lossy
Delay relative to video                  : -83 ms
Stream size                              : 281 MiB (19%)
Title                                    : ~Ranvijay~
Language                                 : Hindi
Default                                  : Yes
Forced                                   : No

Text
ID                                       : 3
Format                                   : UTF-8
Codec ID                                 : S_TEXT/UTF8
Codec ID/Info                            : UTF-8 Plain Text
Duration                                 : 2 h 12 min
Bit rate                                 : 46 b/s
Count of elements                        : 1706
Stream size                              : 45.5 KiB (0%)
Title                                    : ~Ranvijay~
Language                                 : English
Default                                  : Yes
Forced                                   : No















:download:

Quote


File Leeched & Uploaded From




Don't walk as you are king, walk as you don't care who the king is....!!
Never argue with an idiot. They drag you down to their level and then beat you with experience?

Share this topic on FacebookShare this topic on GoogleShare this topic on MySpaceShare this topic on TwitterShare this topic on Yahoo

« Last Edit: June 15, 2018, 01:08:25 PM by Rάήνίјάч1234 »



Don't walk as you are king, walk as you don't care who the king is....!!

Thanks given by:


June 18, 2018, 04:41:41 PM
Reply #1
  • Devoted Member
  • **
  • Thank You: 5
  • Reputation: 15
  • Activity:
    0.2%
  • Posts: 177
  • Topics: 0
  • Join Date: Apr 2013
  • ShareSpark Member
i couldn't find download link just found sample link.... :cool:

June 19, 2018, 12:09:01 AM
Reply #2
  • Global Moderator
  • Legend Member
  • *****
  • Topic Author
  • Thank You: 7659
  • Reputation: 1693
  • Activity:
    100%
  • Country: in
  • Posts: 4521
  • Topics: 3767
  • Join Date: Jan 2014
  • ıllıllı ѕмoĸιng ιѕ good ғor нealтн ıllıllı :)

Don't walk as you are king, walk as you don't care who the king is....!!

Tags:
 

Related Topics




Back to top