+ ShareSpark.net »  :::: Bollywood Zone » Indian TV Shows
|- MAAYA 2 - 12 EPISODES - 1080P WEBHD ESUB - DTONE


100% Recharge Offer

MAAYA 2 - 12 EPISODES - 1080P WEBHD ESUB - DTONE

0 Members and 1 Guest are viewing this topic.

June 16, 2018, 03:31:11 PM
  • Global Moderator
  • Legend Member
  • *****
  • Topic Author
  • Thank You: 10089
  • Reputation: 2082
  • Activity:
    100%
  • Country: in
  • Posts: 5241
  • Topics: 4324
  • Join Date: Jan 2014
  • ıllıllı ѕмoĸιng ιѕ good ғor нealтн ıllıllı :)
MAAYA 2 - 12 EPISODES - 1080P WEBHD ESUB - DTONE



Quote
General
Complete name                            : Episode 6.mp4
Format                                   : MPEG-4
Format profile                           : Base Media
Codec ID                                 : isom (isom/iso2/avc1/mp41)
File size                                : 1.04 GiB
Duration                                 : 18 min 41 s
Overall bit rate                         : 7 927 kb/s
Writing application                      : Lavf56.40.101

Video
ID                                       : 1
Format                                   : AVC
Format/Info                              : Advanced Video Codec
Format profile                           : [email protected]
Format settings                          : CABAC / 4 Ref Frames
Format settings, CABAC                   : Yes
Format settings, RefFrames               : 4 frames
Codec ID                                 : avc1
Codec ID/Info                            : Advanced Video Coding
Duration                                 : 18 min 41 s
Bit rate                                 : 8 000 kb/s
Width                                    : 1 920 pixels
Height                                   : 816 pixels
Display aspect ratio                     : 2.35:1
Frame rate mode                          : Constant
Frame rate                               : 25.000 FPS
Color space                              : YUV
Chroma subsampling                       : 4:2:0
Bit depth                                : 8 bits
Scan type                                : Progressive
Bits/(Pixel*Frame)                       : 0.204
Stream size                              : 1.02 GiB (98%)
Writing library                          : x264 core 138

Audio
ID                                       : 2
Format                                   : AAC
Format/Info                              : Advanced Audio Codec
Format profile                           : LC
Codec ID                                 : mp4a-40-2
Duration                                 : 18 min 41 s
Bit rate mode                            : Constant
Bit rate                                 : 128 kb/s
Channel(s)                               : 2 channels
Channel positions                        : Front: L R
Sampling rate                            : 48.0 kHz
Frame rate                               : 46.875 FPS (1024 SPF)
Compression mode                         : Lossy
Stream size                              : 17.1 MiB (2%)
Default                                  : Yes
Alternate group                          : 1

:ss:








:download:

Quote












File Leeched & Uploaded From




Don't walk as you are king, walk as you don't care who the king is....!!
Never argue with an idiot. They drag you down to their level and then beat you with experience?

Share this topic on FacebookShare this topic on GoogleShare this topic on MySpaceShare this topic on TwitterShare this topic on Yahoo

« Last Edit: June 16, 2018, 03:36:28 PM by Rάήνίјάч1234 »



Don't walk as you are king, walk as you don't care who the king is....!!

Thanks given by:


July 13, 2018, 11:59:21 AM
Reply #1
  • Semi Newbie
  • **
  • Thank You: 0
  • Reputation: 1
  • Activity:
    0.4%
  • Country: in
  • Posts: 6
  • Topics: 0
  • Join Date: May 2017
  • ShareSpark Member

July 14, 2018, 04:13:52 PM
Reply #2
  • Newbie
  • **
  • Thank You: 0
  • Reputation: 0
  • Activity:
    0.2%
  • Posts: 1
  • Topics: 0
  • Join Date: Jul 2013
  • ShareSpark Member

Tags:
 

Related Topics

  Subject / Started by Replies Last post
1 Replies
914 Views
Last post October 23, 2017, 08:41:31 PM
by PSYCHO
0 Replies
640 Views
Last post October 26, 2017, 02:03:43 PM
by ♥[--K4Krish--]♥
4 Replies
1479 Views
Last post March 09, 2018, 03:24:54 AM
by jaydeep123
0 Replies
531 Views
Last post April 14, 2018, 12:37:58 PM
by Rάήνίјάч1234
0 Replies
492 Views
Last post June 17, 2018, 04:11:32 PM
by Rάήνίјάч1234




Back to top