+ ShareSpark.net »  :::: Bollywood Zone » Indian TV Shows
|- Maaya 2 (2018) Complete 720p WEB-HD x264 AAC - Esub ~ Ranvijay [4.25 GB]


100% Recharge Offer

Maaya 2 (2018) Complete 720p WEB-HD x264 AAC - Esub ~ Ranvijay [4.25 GB]

0 Members and 1 Guest are viewing this topic.

June 16, 2018, 05:52:13 PM
  • Global Moderator
  • Legend Member
  • *****
  • Topic Author
  • Thank You: 10789
  • Reputation: 2178
  • Activity:
    100%
  • Country: in
  • Posts: 5364
  • Topics: 4431
  • Join Date: Jan 2014
  • ıllıllı ѕмoĸιng ιѕ good ғor нealтн ıllıllı :)


Buy RDP Online


Maaya 2 (2018) Complete 720p WEB-HD x264 AAC - Esub ~ Ranvijay

Source :- Lovepreet1 @ DTOne.


Quote
Format                                   : Matroska
Format version                           : Version 4 / Version 2
Overall bit rate                         : 2 438 kb/s

Video
ID                                       : 1
Format                                   : AVC
Bit rate                                 : 2 370 kb/s
Width                                    : 1 280 pixels
Height                                   : 544 pixels
Display aspect ratio                     : 2.35:1
Frame rate mode                          : Constant
Frame rate                               : 25.000 FPS
Color space                              : YUV
Chroma subsampling                       : 4:2:0
Bit depth                                : 8 bits
Scan type                                : Progressive
Bits/(Pixel*Frame)                       : 0.136
Stream size                              : 317 MiB (95%)
Title                                    : ~Ranvijay~

Audio
ID                                       : 2
Format                                   : AAC
Format/Info                              : Advanced Audio Codec
Format profile                           : LC
Codec ID                                 : A_AAC-2
Bit rate                                 : 128 kb/s
Channel(s)                               : 2 channels
Channel positions                        : Front: L R
Sampling rate                            : 48.0 kHz
Frame rate                               : 46.875 FPS (1024 SPF)
Compression mode                         : Lossy
Delay relative to video                  : -80 ms
Stream size                              : 17.6 MiB (5%)
Title                                    : ~Ranvijay~
Language                                 : Hindi
Default                                  : Yes
Forced                                   : No

Text
ID                                       : 3
Format                                   : UTF-8
Codec ID                                 : S_TEXT/UTF8
Codec ID/Info                            : UTF-8 Plain Text
Bit rate                                 : 43 b/s
Count of elements                        : 189
Stream size                              : 5.73 KiB (0%)
Title                                    : ~Ranvijay~
Language                                 : English
Default                                  : Yes
Forced                                   : No















:download:

Quote













Rar Link :-


File Leeched & Uploaded From




Don't walk as you are king, walk as you don't care who the king is....!!
Never argue with an idiot. They drag you down to their level and then beat you with experience?

Share this topic on FacebookShare this topic on GoogleShare this topic on MySpaceShare this topic on TwitterShare this topic on Yahoo

« Last Edit: June 16, 2018, 05:53:42 PM by Rάήνίјάч1234 »



Don't walk as you are king, walk as you don't care who the king is....!!

Thanks given by:


June 16, 2018, 06:22:55 PM
Reply #1
  • Hot Member
  • ***
  • Thank You: 25
  • Reputation: 8
  • Activity:
    4.4%
  • Country: bd
  • Posts: 602
  • Topics: 12
  • Join Date: Jun 2017
  • ShareSpark Member

June 17, 2018, 07:51:28 AM
Reply #2
  • Senior Member
  • ***
  • Thank You: 0
  • Reputation: 2
  • Activity:
    3%
  • Country: in
  • Posts: 204
  • Topics: 2
  • Join Date: Dec 2016
  • ShareSpark Member

Tags:
 

Related Topics





Back to top