+ ShareSpark.net »  :::: Bollywood Zone » Indian TV Shows
|- MAAYA (2017) WEB SERIES 12MBPS 1080P WEBHD - DTONE

DTH Recharges 20% Back

MAAYA (2017) WEB SERIES 12MBPS 1080P WEBHD - DTONE

0 Members and 1 Guest are viewing this topic.

June 17, 2018, 04:11:32 PM
  • Global Moderator
  • Legend Member
  • *****
  • Topic Author
  • Thank You: 7622
  • Reputation: 1677
  • Activity:
    100%
  • Country: in
  • Posts: 4512
  • Topics: 3760
  • Join Date: Jan 2014
  • ıllıllı ѕмoĸιng ιѕ good ғor нealтн ıllıllı :)
MAAYA (2017) WEB SERIES 12MBPS 1080P WEBHD - DTONE



Buy RDP Online


Quote
General
Complete name                            : Episode 5.mp4
Format                                   : MPEG-4
Format profile                           : Base Media
Codec ID                                 : isom (isom/iso2/avc1/mp41)
File size                                : 1.75 GiB
Duration                                 : 21 min 5 s
Overall bit rate mode                    : Variable
Overall bit rate                         : 11.9 Mb/s
Writing application                      : Lavf56.40.101

Video
ID                                       : 1
Format                                   : AVC
Format/Info                              : Advanced Video Codec
Format profile                           : [email protected]
Format settings                          : CABAC / 4 Ref Frames
Format settings, CABAC                   : Yes
Format settings, RefFrames               : 4 frames
Codec ID                                 : avc1
Codec ID/Info                            : Advanced Video Coding
Duration                                 : 21 min 5 s
Bit rate                                 : 12.0 Mb/s
Width                                    : 1 920 pixels
Height                                   : 816 pixels
Display aspect ratio                     : 2.35:1
Frame rate mode                          : Constant
Frame rate                               : 25.000 FPS
Color space                              : YUV
Chroma subsampling                       : 4:2:0
Bit depth                                : 8 bits
Scan type                                : Progressive
Bits/(Pixel*Frame)                       : 0.306
Stream size                              : 1.72 GiB (98%)
Writing library                          : x264 core 138

Audio
ID                                       : 2
Format                                   : AAC
Format/Info                              : Advanced Audio Codec
Format profile                           : LC
Codec ID                                 : mp4a-40-2
Duration                                 : 21 min 5 s
Bit rate mode                            : Variable
Bit rate                                 : 192 kb/s
Maximum bit rate                         : 195 kb/s
Channel(s)                               : 2 channels
Channel positions                        : Front: L R
Sampling rate                            : 48.0 kHz
Frame rate                               : 46.875 FPS (1024 SPF)
Compression mode                         : Lossy
Stream size                              : 29.0 MiB (2%)
Default                                  : Yes
Alternate group                          : 1

:ss:






:download:

Quote












Rar Link



File Leeched & Uploaded From




Don't walk as you are king, walk as you don't care who the king is....!!
Never argue with an idiot. They drag you down to their level and then beat you with experience?

Share this topic on FacebookShare this topic on GoogleShare this topic on MySpaceShare this topic on TwitterShare this topic on Yahoo




Don't walk as you are king, walk as you don't care who the king is....!!

Thanks given by:


Tags:
 

Related Topics

  Subject / Started by Replies Last post
1 Replies
798 Views
Last post October 23, 2017, 08:41:31 PM
by PSYCHO
1 Replies
883 Views
Last post October 30, 2017, 11:35:26 PM
by cool dude
1 Replies
529 Views
Last post January 12, 2018, 10:25:24 PM
by Anand00
2 Replies
626 Views
Last post April 21, 2018, 04:43:09 AM
by jaydeep123
2 Replies
605 Views
Last post July 14, 2018, 04:13:52 PM
by muntarin



Back to top