+ ShareSpark.net »  :::: Bollywood Zone » Indian TV Shows
|- Maaya (2017) Complete 720p WEB-HD x264 AAC ~ Ranvijay

10% Off with Visa

Maaya (2017) Complete 720p WEB-HD x264 AAC ~ Ranvijay

0 Members and 1 Guest are viewing this topic.

June 17, 2018, 04:22:42 PM
  • Global Moderator
  • Legend Member
  • *****
  • Topic Author
  • Thank You: 9245
  • Reputation: 1934
  • Activity:
    100%
  • Country: in
  • Posts: 5025
  • Topics: 4150
  • Join Date: Jan 2014
  • ıllıllı ѕмoĸιng ιѕ good ғor нealтн ıllıllı :)


Buy RDP Online


Maaya (2017) Complete 720p WEB-HD x264 AAC ~ Ranvijay

Source :- Lovepreet1 @ DTOne.


Quote
Format                                   : Matroska
Format version                           : Version 4 / Version 2
File size                                : 381 MiB
Duration                                 : 21 min 23 s
Overall bit rate                         : 2 490 kb/s
Movie name                               : Maaya (2017) EP01 720p WEB-HD x264 AAC ~ Ranvijay

Video
ID                                       : 1
Format                                   : AVC
Duration                                 : 21 min 23 s
Bit rate                                 : 2 370 kb/s
Width                                    : 1 280 pixels
Height                                   : 544 pixels
Display aspect ratio                     : 2.35:1
Original display aspect ratio            : 2.35:1
Frame rate mode                          : Constant
Frame rate                               : 25.000 FPS
Color space                              : YUV
Chroma subsampling                       : 4:2:0
Bit depth                                : 8 bits
Scan type                                : Progressive
Bits/(Pixel*Frame)                       : 0.136
Stream size                              : 351 MiB (92%)
Title                                    : ~Ranvijay~
Default                                  : Yes
Forced                                   : No

Audio
ID                                       : 2
Format                                   : AAC
Format/Info                              : Advanced Audio Codec
Format profile                           : LC
Codec ID                                 : A_AAC-2
Duration                                 : 21 min 23 s
Bit rate                                 : 192 kb/s
Channel(s)                               : 2 channels
Channel positions                        : Front: L R
Sampling rate                            : 48.0 kHz
Frame rate                               : 46.875 FPS (1024 SPF)
Compression mode                         : Lossy
Delay relative to video                  : -80 ms
Stream size                              : 29.4 MiB (8%)
Title                                    : ~Ranvijay~
Language                                 : Hindi
Default                                  : Yes
Forced                                   : No
















:download:

Quote











Rar Link



File Leeched & Uploaded From




Don't walk as you are king, walk as you don't care who the king is....!!
Never argue with an idiot. They drag you down to their level and then beat you with experience?

Share this topic on FacebookShare this topic on GoogleShare this topic on MySpaceShare this topic on TwitterShare this topic on Yahoo




Don't walk as you are king, walk as you don't care who the king is....!!

Thanks given by:


June 17, 2018, 04:54:58 PM
Reply #1
  • Addic7ed
  • Royal Member
  • ****
  • Thank You: 506
  • Reputation: 185
  • Activity:
    10.4%
  • Country: np
  • Posts: 1077
  • Topics: 702
  • Join Date: May 2017
  • #Me

June 18, 2018, 11:04:10 PM
Reply #2
  • Senior Member
  • ***
  • Thank You: 0
  • Reputation: 2
  • Activity:
    4.8%
  • Country: in
  • Posts: 201
  • Topics: 2
  • Join Date: Dec 2016
  • ShareSpark Member
Plz Upload All episodes in 200mb.....
All Episodes have already available in the site but file has been removed.......

Tags:
 

Related Topics

  Subject / Started by Replies Last post
2 Replies
844 Views
Last post September 29, 2017, 12:25:49 AM
by Azamworld
0 Replies
352 Views
Last post December 06, 2017, 10:36:46 AM
by UnikAaYush
0 Replies
403 Views
Last post December 06, 2017, 10:49:03 AM
by UnikAaYush
0 Replies
563 Views
Last post December 06, 2017, 04:38:00 PM
by UnikAaYush
2 Replies
1159 Views
Last post June 17, 2018, 07:51:28 AM
by vjkumar24



Back to top