+ ShareSpark.net »  :::: Bollywood Zone » Bollywood Movies (Original Rips)
|- PADMAAVAT (2018) Hindi 720p Bluray x264 AC3 DD 5.1 - Esub ~ Ranvijay

Weekend Pay And Play 50% Off

PADMAAVAT (2018) Hindi 720p Bluray x264 AC3 DD 5.1 - Esub ~ Ranvijay

0 Members and 1 Guest are viewing this topic.

June 20, 2018, 07:15:25 PM
  • Global Moderator
  • Legend Member
  • *****
  • Topic Author
  • Thank You: 7659
  • Reputation: 1693
  • Activity:
    100%
  • Country: in
  • Posts: 4521
  • Topics: 3767
  • Join Date: Jan 2014
  • ıllıllı ѕмoĸιng ιѕ good ғor нealтн ıllıllı :)


PADMAAVAT (2018) Hindi 720p Bluray x264 DD 5.1 - Esub ~ Ranvijay

Source : - BD50 @ Hon3yHD


Quote
Format                                   : Matroska
Format version                           : Version 4 / Version 2
File size                                : 1.81 GiB
Duration                                 : 2 h 43 min
Overall bit rate                         : 1 584 kb/s
Movie name                               : PADMAAVAT (2018) Hindi 720p Bluray x264 AC3 DD 5.1 - Esub ~ Ranvijay

Video
ID                                       : 1
Format                                   : AVC
Duration                                 : 2 h 43 min
Bit rate                                 : 1 125 kb/s
Width                                    : 1 280 pixels
Height                                   : 536 pixels
Display aspect ratio                     : 2.40:1
Frame rate mode                          : Constant
Frame rate                               : 24.000 FPS
Color space                              : YUV
Chroma subsampling                       : 4:2:0
Bit depth                                : 8 bits
Scan type                                : Progressive
Bits/(Pixel*Frame)                       : 0.068
Stream size                              : 1.28 GiB (71%)
Title                                    : ~Ranvijay~


Audio
ID                                       : 2
Format                                   : AC-3
Format/Info                              : Audio Coding 3
Codec ID                                 : A_AC3
Duration                                 : 2 h 43 min
Bit rate mode                            : Constant
Bit rate                                 : 448 kb/s
Channel(s)                               : 6 channels
Channel positions                        : Front: L C R, Side: L R, LFE
Sampling rate                            : 48.0 kHz
Frame rate                               : 31.250 FPS (1536 SPF)
Bit depth                                : 16 bits
Compression mode                         : Lossy
Delay relative to video                  : -83 ms
Stream size                              : 524 MiB (28%)
Title                                    : ~Ranvijay~
Language                                 : Hindi
Service kind                             : Complete Main
Default                                  : Yes
Forced                                   : No

Text
ID                                       : 3
Format                                   : PGS
Muxing mode                              : zlib
Codec ID                                 : S_HDMV/PGS
Codec ID/Info                            : Picture based subtitle format used on BDs/HD-DVDs
Duration                                 : 2 h 32 min
Bit rate                                 : 22.2 kb/s
Count of elements                        : 2506
Stream size                              : 24.3 MiB (1%)
Title                                    : ~Ranvijay~
Language                                 : English
Default                                  : Yes
Forced                                   : No



















:download:

Quote














Sample


File Leeched & Uploaded From




Don't walk as you are king, walk as you don't care who the king is....!!
Never argue with an idiot. They drag you down to their level and then beat you with experience?

Share this topic on FacebookShare this topic on GoogleShare this topic on MySpaceShare this topic on TwitterShare this topic on Yahoo

« Last Edit: June 21, 2018, 12:15:42 AM by Rάήνίјάч1234 »



Don't walk as you are king, walk as you don't care who the king is....!!

June 20, 2018, 10:30:23 PM
Reply #1
  • Elite Member
  • ***
  • Thank You: 0
  • Reputation: 0
  • Activity:
    6%
  • Posts: 453
  • Topics: 0
  • Join Date: Jul 2012
  • ShareSpark Member

June 21, 2018, 02:55:41 AM
Reply #2
  • Elite Member
  • ***
  • Thank You: 0
  • Reputation: 0
  • Activity:
    6%
  • Posts: 453
  • Topics: 0
  • Join Date: Jul 2012
  • ShareSpark Member

Tags:
 

Related Topics




Back to top