+ ShareSpark.net »  :::: Dubbed Zone (Dubbed English in Hindi) » English Movies Dubbed in Hindi » High Resolution Movies
|- Captain America Collection (2011 - 2016) 1080p BluRay Dual Audio [Hindi DD5.1 - English DD5.1] - Esu

Gif Cards 25% Off

Captain America Collection (2011 - 2016) 1080p BluRay Dual Audio [Hindi DD5.1 - English DD5.1] - Esu

0 Members and 1 Guest are viewing this topic.

June 25, 2018, 04:34:02 PM
  • Global Moderator
  • Legend Member
  • *****
  • Topic Author
  • Thank You: 7614
  • Reputation: 1676
  • Activity:
    100%
  • Country: in
  • Posts: 4512
  • Topics: 3760
  • Join Date: Jan 2014
  • ıllıllı ѕмoĸιng ιѕ good ғor нealтн ıllıllı :)


Captain America Collection (2011 - 2016) 1080p BluRay Dual Audio [Hindi DD5.1 - English DD5.1] - Esub ~ Ranvijay

Buy RDP Online






Captain America The First Avenger (2011) 1080p BluRay x264 Dual Audio [Hindi DD5.1 - English DD5.1] - Esub ~ Ranvijay

Quote
Format                                   : Matroska
Format version                           : Version 4 / Version 2
File size                                : 4.60 GiB
Duration                                 : 2 h 4 min
Overall bit rate                         : 5 302 kb/s
Movie name                               : Captain America The First Avenger (2011) 1080p BluRay x264 Dual Audio [Hindi DD5.1 - English DD5.1] - Esub ~ Ranvijay

Video
ID                                       : 1
Format                                   : AVC
Duration                                 : 2 h 4 min
Bit rate                                 : 4 400 kb/s
Width                                    : 1 920 pixels
Height                                   : 816 pixels
Display aspect ratio                     : 2.35:1
Frame rate mode                          : Constant
Frame rate                               : 23.976 (24000/1001) FPS
Stream size                              : 3.82 GiB (83%)
Title                                    : ~Ranvijay~
Language                                 : English

Audio #1
ID                                       : 3
Format                                   : AC-3
Bit rate mode                            : Constant
Bit rate                                 : 448 kb/s
Channel(s)                               : 6 channels
Channel positions                        : Front: L C R, Side: L R, LFE
Title                                    : ~Ranvijay~
Language                                 : Hindi

Audio #2
ID                                       : 4
Format                                   : AC-3
Bit rate mode                            : Constant
Bit rate                                 : 448 kb/s
Channel(s)                               : 6 channels
Channel positions                        : Front: L C R, Side: L R, LFE
Title                                    : ~Ranvijay~
Language                                 : English

Text #1
ID                                       : 2
Format                                   : UTF-8

Text #2
ID                                       : 5
Format                                   : VobSub












Captain America The Winter Soldier (2014) 1080p BluRay x264 Dual Audio [Hindi DD5.1 - English DD5.1] - Esubs ~ Ranvijay

Quote
Format                                   : Matroska
Format version                           : Version 4 / Version 2
File size                                : 5.28 GiB
Duration                                 : 2 h 15 min
Overall bit rate                         : 5 560 kb/s
Movie name                               : Captain America The Winter Soldier (2014) 1080p BluRay x264 Dual Audio [Hindi DD5.1 - English DD5.1] - Esubs ~ Ranvijay

Video
ID                                       : 1
Format                                   : AVC
Format/Info                              : Advanced Video Codec
Duration                                 : 2 h 15 min
Bit rate                                 : 4 269 kb/s
Width                                    : 1 920 pixels
Height                                   : 800 pixels
Display aspect ratio                     : 2.40:1
Frame rate mode                          : Constant
Frame rate                               : 23.976 (24000/1001) FPS
Stream size                              : 4.05 GiB (77%)
Title                                    : ~Ranvijay~
Language                                 : English
Default                                  : Yes
Forced                                   : No

Audio #1
ID                                       : 2
Format                                   : AC-3
Bit rate mode                            : Constant
Bit rate                                 : 640 kb/s
Channel(s)                               : 6 channels
Channel positions                        : Front: L C R, Side: L R, LFE
Title                                    : ~Ranvijay~
Language                                 : Hindi

Audio #2
ID                                       : 3
Bit rate mode                            : Constant
Bit rate                                 : 640 kb/s
Channel(s)                               : 6 channels
Channel positions                        : Front: L C R, Side: L R, LFE
Title                                    : ~Ranvijay~
Language                                 : English

Text #1
ID                                       : 4
Format                                   : PGS

Text #2
ID                                       : 5
Format                                   : UTF-8













Captain America Civil War (2016) 1080p BluRay x264 Dual Audio [Hindi DD5.1 - English DD5.1] - Esubs ~ Ranvijay

Quote
Format                                   : Matroska
Format version                           : Version 4 / Version 2
File size                                : 5.80 GiB
Duration                                 : 2 h 27 min
Overall bit rate mode                    : Variable
Overall bit rate                         : 5 620 kb/s
Movie name                               : Captain America Civil War (2016) 1080p BluRay x264 Dual Audio [Hindi DD5.1 - English DD5.1] - Esubs ~ Ranvijay

Video
ID                                       : 1
Format                                   : AVC
Duration                                 : 2 h 27 min
Bit rate mode                            : Variable
Bit rate                                 : 4 332 kb/s
Maximum bit rate                         : 25.0 Mb/s
Width                                    : 1 920 pixels
Height                                   : 804 pixels
Display aspect ratio                     : 2.40:1
Frame rate mode                          : Constant
Frame rate                               : 23.976 (24000/1001) FPS
Stream size                              : 4.47 GiB (77%)
Title                                    : ~Ranvijay~
Default                                  : Yes
Forced                                   : No

Audio #1
ID                                       : 2
Format                                   : AC-3
Bit rate mode                            : Constant
Bit rate                                 : 640 kb/s
Channel(s)                               : 6 channels
Channel positions                        : Front: L C R, Side: L R, LFE
Title                                    : ~Ranvijay~
Language                                 : Hindi

Audio #2
ID                                       : 3
Format                                   : AC-3
Bit rate mode                            : Constant
Bit rate                                 : 640 kb/s
Channel(s)                               : 6 channels
Channel positions                        : Front: L C R, Side: L R, LFE
Title                                    : ~Ranvijay~
Language                                 : English

Text #1
ID                                       : 4
Format                                   : VobSub

Text #2
ID                                       : 5
Format                                   : VobSub
















:download:

Quote



File Leeched & Uploaded From




Don't walk as you are king, walk as you don't care who the king is....!!
Never argue with an idiot. They drag you down to their level and then beat you with experience?

Share this topic on FacebookShare this topic on GoogleShare this topic on MySpaceShare this topic on TwitterShare this topic on Yahoo




Don't walk as you are king, walk as you don't care who the king is....!!

Thanks given by:


June 25, 2018, 05:41:31 PM
Reply #1
  • Newbie
  • **
  • Thank You: 0
  • Reputation: 0
  • Activity:
    0.6%
  • Posts: 3
  • Topics: 0
  • Join Date: Nov 2017
  • ShareSpark Member
Thank you very much for the shares you are doing and please also do upload tamil dubbed audio files more as there tamil people visitors like me. i do respect your work. thank you.
 :thank: :india1:

June 25, 2018, 10:33:25 PM
Reply #2
  • Semi Newbie
  • **
  • Thank You: 0
  • Reputation: -3
  • Activity:
    10.2%
  • Country: in
  • Posts: 39
  • Topics: 0
  • Join Date: Jun 2018
  • ShareSpark Member
Nice work bro like always bs ek Iron man ka collection ho Jaye to sone pe suhaga And thanks for Captain America Collection

June 25, 2018, 11:26:23 PM
Reply #3
  • Special Member
  • ****
  • Thank You: 664
  • Reputation: 395
  • Activity:
    100%
  • Country: pk
  • Posts: 760
  • Topics: 341
  • Join Date: Mar 2015
  • ShareSpark Member

July 11, 2018, 04:17:39 AM
Reply #4
  • Semi Newbie
  • **
  • Thank You: 0
  • Reputation: 0
  • Activity:
    0.8%
  • Country: in
  • Posts: 14
  • Topics: 0
  • Join Date: Dec 2014
  • ShareSpark Member
Thanks have been searching for Civil War all over the net even google and torrent, couldn't find it anywhere and finally found it in your post Thanks!! :thank: :thank:

Tags: thanks!! 
 

Related Topics




Back to top