+ ShareSpark.net »  :::: Dubbed Zone (Dubbed English in Hindi) » English Movies Dubbed in Hindi » High Resolution Movies
|- Priest (2011) 1080p BluRay x264 Dual Audio [Hindi DD5.1 - English DD5.1] - Msubs ~ Ranvijay


HDFC 10% Off
  • Priest (2011) 1080p BluRay x264 Dual Audio [Hindi DD5.1 - English DD5.1] - Msubs ~ Ranvijay 5 1
Currently:  

Priest (2011) 1080p BluRay x264 Dual Audio [Hindi DD5.1 - English DD5.1] - Msubs ~ Ranvijay

0 Members and 1 Guest are viewing this topic.

June 28, 2018, 07:34:05 AM
  • Global Moderator
  • Legend Member
  • *****
  • Topic Author
  • Thank You: 10847
  • Reputation: 2186
  • Activity:
    100%
  • Country: in
  • Posts: 5399
  • Topics: 4464
  • Join Date: Jan 2014
  • ıllıllı ѕмoĸιng ιѕ good ғor нealтн ıllıllı :)






Priest (2011) 1080p BluRay x264 Dual Audio [Hindi DD5.1 - English DD5.1] - Msubs ~ Ranvijay

Buy RDP Online


Quote
Format                                   : Matroska
Format version                           : Version 4 / Version 2
File size                                : 4.89 GiB
Duration                                 : 1 h 27 min
Overall bit rate                         : 8 000 kb/s
Movie name                               : Priest (2011) 1080p BluRay x264 Dual Audio [Hindi DD5.1 - English DD5.1] - Msubs ~ Ranvijay

Video
ID                                       : 1
Format                                   : AVC
Duration                                 : 1 h 27 min
Bit rate                                 : 6 707 kb/s
Width                                    : 1 920 pixels
Height                                   : 800 pixels
Display aspect ratio                     : 2.40:1
Frame rate mode                          : Constant
Frame rate                               : 23.976 (24000/1001) FPS
Color space                              : YUV
Chroma subsampling                       : 4:2:0
Bit depth                                : 8 bits
Scan type                                : Progressive
Bits/(Pixel*Frame)                       : 0.182
Stream size                              : 4.10 GiB (84%)
Title                                    : ~Ranvijay~
Language                                 : English
Default                                  : Yes
Forced                                   : No

Audio #1
ID                                       : 2
Format                                   : AC-3
Format/Info                              : Audio Coding 3
Codec ID                                 : A_AC3
Duration                                 : 1 h 27 min
Bit rate mode                            : Constant
Bit rate                                 : 640 kb/s
Channel(s)                               : 6 channels
Channel positions                        : Front: L C R, Side: L R, LFE
Sampling rate                            : 48.0 kHz
Frame rate                               : 31.250 FPS (1536 SPF)
Bit depth                                : 16 bits
Compression mode                         : Lossy
Stream size                              : 400 MiB (8%)
Title                                    : ~Ranvijay~
Language                                 : Hindi
Service kind                             : Complete Main
Default                                  : Yes
Forced                                   : No

Audio #2
ID                                       : 3
Format                                   : AC-3
Format/Info                              : Audio Coding 3
Codec ID                                 : A_AC3
Duration                                 : 1 h 27 min
Bit rate mode                            : Constant
Bit rate                                 : 640 kb/s
Channel(s)                               : 6 channels
Channel positions                        : Front: L C R, Side: L R, LFE
Sampling rate                            : 48.0 kHz
Frame rate                               : 31.250 FPS (1536 SPF)
Bit depth                                : 16 bits
Compression mode                         : Lossy
Stream size                              : 400 MiB (8%)
Title                                    : ~Ranvijay~
Language                                 : English
Service kind                             : Complete Main
Default                                  : No
Forced                                   : No

Text #1
ID                                       : 4
Format                                   : PGS
Muxing mode                              : zlib
Codec ID                                 : S_HDMV/PGS
Codec ID/Info                            : Picture based subtitle format used on BDs/HD-DVDs
Duration                                 : 1 h 19 min
Bit rate                                 : 6 031 b/s
Count of elements                        : 1356
Stream size                              : 3.43 MiB (0%)
Title                                    : ~Ranvijay~
Language                                 : Hindi
Default                                  : Yes
Forced                                   : No

Text #2
ID                                       : 5
Format                                   : PGS
Muxing mode                              : zlib
Codec ID                                 : S_HDMV/PGS
Codec ID/Info                            : Picture based subtitle format used on BDs/HD-DVDs
Duration                                 : 1 h 19 min
Bit rate                                 : 6 291 b/s
Count of elements                        : 1326
Stream size                              : 3.57 MiB (0%)
Title                                    : ~Ranvijay~
Language                                 : English
Default                                  : No
Forced                                   : No

Text #3
ID                                       : 6
Format                                   : UTF-8
Codec ID                                 : S_TEXT/UTF8
Codec ID/Info                            : UTF-8 Plain Text
Duration                                 : 1 h 19 min
Bit rate                                 : 34 b/s
Count of elements                        : 659
Stream size                              : 20.1 KiB (0%)
Title                                    : ~Ranvijay~
Language                                 : English
Default                                  : No
Forced                                   : No















:download:

Quote

File Leeched & Uploaded From




Don't walk as you are king, walk as you don't care who the king is....!!
Never argue with an idiot. They drag you down to their level and then beat you with experience?

Share this topic on FacebookShare this topic on GoogleShare this topic on MySpaceShare this topic on TwitterShare this topic on Yahoo




Don't walk as you are king, walk as you don't care who the king is....!!

Thanks given by:


June 28, 2018, 07:37:50 AM
Reply #1
  • Semi Newbie
  • **
  • Thank You: 0
  • Reputation: -2
  • Activity:
    0%
  • Country: in
  • Posts: 39
  • Topics: 0
  • Join Date: Jun 2018
  • ShareSpark Member

June 28, 2018, 07:38:36 AM
Reply #2
  • Semi Newbie
  • **
  • Thank You: 0
  • Reputation: -2
  • Activity:
    0%
  • Country: in
  • Posts: 39
  • Topics: 0
  • Join Date: Jun 2018
  • ShareSpark Member
Rάήνίјάч1234 bhai apne Thor, Guardians of galaxy, Captain America ke collection upload kiye h an bs IRONMAN or AVENGERS ke collection bache h plz 1080p bluray Hindi size 5 GB tak G drive me available kra do

June 28, 2018, 07:42:00 AM
Reply #3
  • Semi Newbie
  • **
  • Thank You: 0
  • Reputation: -2
  • Activity:
    0%
  • Country: in
  • Posts: 39
  • Topics: 0
  • Join Date: Jun 2018
  • ShareSpark Member
Rάήνίјάч1234 bhai please IRONMAN or AVENGERS ke collection 1080p bluray audio Hindi size 5 GB tak G drive me available kra do

June 29, 2018, 06:47:43 AM
Reply #4
  • Semi Newbie
  • **
  • Thank You: 0
  • Reputation: 0
  • Activity:
    2.4%
  • Country: in
  • Posts: 19
  • Topics: 0
  • Join Date: Nov 2015
  • ShareSpark Member

Tags: dual audio 
 

Related Topics





Back to top