+ ShareSpark.net »  :::: Bollywood Zone » Pakistani / Urdu Movies
|- Janaan (2016) Urdu Pakistani Movie 1080p BluRay HD ~MaLiK ZEE~

DTH Recharges 20% Back

Janaan (2016) Urdu Pakistani Movie 1080p BluRay HD ~MaLiK ZEE~

0 Members and 1 Guest are viewing this topic.

June 29, 2018, 04:33:00 AM
Janaan (2016) Urdu Pakistani Movie 1080p BluRay HD ~MaLiK ZEE~


Quote
General
Format                      : Matroska
Format version              : Version 2
File size                   : 11.1 GiB
Duration                    : 2 h 12 min
Overall bit rate            : 12.0 Mb/s
Writing application         : Lavf51.12.1
Writing library             : Lavf51.12.1

Video
ID                          : 1
Format                      : AVC
Format/Info                 : Advanced Video Codec
Format profile              : [email protected]
Format settings             : 1 Ref Frames
Format settings, CABAC      : No
Format settings, ReFrames   : 1 frame
Format settings, GOP        : M=1, N=12
Codec ID                    : V_MPEG4/ISO/AVC
Duration                    : 2 h 12 min
Bit rate                    : 11.6 Mb/s
Width                       : 1 920 pixels
Height                      : 856 pixels
Display aspect ratio        : 2.25:1
Frame rate mode             : Constant
Frame rate                  : 23.976 (24000/1001) FPS
Color space                 : YUV
Chroma subsampling          : 4:2:0
Bit depth                   : 8 bits
Scan type                   : Progressive
Bits/(Pixel*Frame)          : 0.295
Stream size                 : 10.7 GiB (97%)
Default                     : Yes
Forced                      : No

Audio
ID                          : 2
ID                          : 2
Format                      : MPEG Audio
Format version              : Version 1
Format profile              : Layer 3
Format settings             : Joint stereo
Codec ID                    : A_MPEG/L3
Codec ID/Hint               : MP3
Duration                    : 2 h 12 min
Bit rate mode               : Constant
Bit rate                    : 128 kb/s
Channel(s)                  : 2 channels
Sampling rate               : 44.1 kHz
Compression mode            : Lossy
Stream size                 : 121 MiB (1%)
Writing library             : LAME3.97
Default                     : Yes
Forced                      : No




:ss:














 :download:
Quote

【M】【A】【L】【I】【K】    【Z】【E】【E】【S】【H】【A】【N】

Share this topic on FacebookShare this topic on GoogleShare this topic on MySpaceShare this topic on TwitterShare this topic on Yahoo

« Last Edit: June 29, 2018, 04:39:25 AM by 【M】【A】【L】【I】【K】 【Z】【E】【E】 »


Thanks given by:


June 29, 2018, 11:19:57 AM
Reply #1
  • Semi Newbie
  • **
  • Thank You: 0
  • Reputation: 0
  • Activity:
    8%
  • Country: my
  • Posts: 33
  • Topics: 0
  • Join Date: Mar 2018
  • ShareSpark Member
 :thank:

June 29, 2018, 01:27:11 PM
Reply #2
  • Semi Newbie
  • **
  • Thank You: 2
  • Reputation: 0
  • Activity:
    3.8%
  • Country: bt
  • Posts: 18
  • Topics: 9
  • Join Date: Jun 2018
  • ShareSpark Member

June 29, 2018, 02:49:12 PM
Reply #3
  • LaDLa PriNce
  • Addic7ed (Inactive)
  • Legend Member
  • ****
  • Thank You: 213
  • Reputation: 91
  • Activity:
    3.4%
  • Country: pk
  • Posts: 1773
  • Topics: 161
  • Join Date: Sep 2012
  • I <3 ShareSpark
Pakistani Movie Kab Bluray Mein Release Hui Hai
WebRip Ko Bluray Mein Bata Rahe Ho

July 04, 2018, 07:15:14 PM
Reply #4
  • Newbie
  • **
  • Thank You: 0
  • Reputation: 0
  • Activity:
    0.4%
  • Country: pk
  • Posts: 3
  • Topics: 0
  • Join Date: Oct 2017
  • ShareSpark Member
Thank you for your effort.

Please upload in 720p BluRay with size 2 to 3 GB

Tags: special26 
 

Related Topics




Back to top