+ ShareSpark.net »  :::: Bollywood Zone » Indian PC Videos
|- Dilwale (2015) Bollywood Movie Music Album HQ 1080p REM-Bluray x264 DTS-HDMA MSubs By ~MaLiK ZEE~

Mobile Recharge Offer 20% Off

Dilwale (2015) Bollywood Movie Music Album HQ 1080p REM-Bluray x264 DTS-HDMA MSubs By ~MaLiK ZEE~

0 Members and 1 Guest are viewing this topic.

July 06, 2018, 10:11:41 AM
Dilwale (2015) Bollywood Movie Music Album HQ 1080p REM-Bluray x264 DTS-HDMA MSubs By ~MaLiK ZEE~


Quote

General
Format                      : Matroska
Format version              : Version 4 / Version 2
Overall bit rate            : 11.4 Mb/s
Writing application         : Lavf57.71.100
Writing library             : Lavf57.71.100
ErrorDetectionType          : Per level 1

Video
ID                          : 1
Format                      : AVC
Format/Info                 : Advanced Video Codec
Format profile              : [email protected]
Format settings             : CABAC / 5 Ref Frames
Format settings, CABAC      : Yes
Format settings, ReFrames   : 5 frames
Codec ID                    : V_MPEG4/ISO/AVC
Bit rate                    : 10.4 Mb/s
Width                       : 1 920 pixels
Height                      : 800 pixels
Display aspect ratio        : 2.40:1
Frame rate mode             : Constant
Frame rate                  : 24.000 FPS
Color space                 : YUV
Chroma subsampling          : 4:2:0
Bit depth                   : 8 bits
Scan type                   : Progressive
Bits/(Pixel*Frame)          : 0.281
Stream size                 : 177 MiB (91%)
Default                     : Yes
Forced                      : No
Color range                 : Limited
Color primaries             : BT.709
Transfer characteristics    : BT.709
Matrix coefficients         : BT.709

Audio
ID                          : 2
Format                      : DTS
Format/Info                 : Digital Theater Systems
Codec ID                    : A_DTS
Bit rate mode               : Constant
Bit rate                    : 768 kb/s
Channel(s)                  : 6 channels
Channel positions           : Front: L C R, Side: L R, LFE
Sampling rate               : 48.0 kHz
Frame rate                  : 93.750 FPS (512 SPF)
Bit depth                   : 16 bits
Compression mode            : Lossy
Stream size                 : 13.1 MiB (7%)
Language                    : Hindi
Default                     : Yes
Forced                      : No


 :ss:










 :download:

Google Drive

Quote
01-Manma Emotion Jaage

02-Gerua

03-Janam Janam 1

04-Daayre

05-Janam Janam 2

06-Tukur Tukur End Roll
:download:
Zip File
Quote

【M】【A】【L】【I】【K】    【Z】【E】【E】【S】【H】【A】【N】

Share this topic on FacebookShare this topic on GoogleShare this topic on MySpaceShare this topic on TwitterShare this topic on Yahoo



Thanks given by:


July 06, 2018, 10:28:40 AM
Reply #1
  • Team SSX
  • Elite Forces
  • ***
  • Thank You: 1381
  • Reputation: 489
  • Activity:
    67.2%
  • Country: np
  • Posts: 1401
  • Topics: 774
  • Join Date: Jul 2016
  • Love Forever !!

August 08, 2018, 05:40:26 AM
Reply #2
  • Semi Newbie
  • **
  • Thank You: 0
  • Reputation: 0
  • Activity:
    3%
  • Country: pk
  • Posts: 15
  • Topics: 0
  • Join Date: Mar 2018
  • ShareSpark Member

Tags:
 

Related Topics




Back to top