+ ShareSpark.net »  :::: Bollywood Zone » Bollywood Movies (Original Rips) » TeamSSX Bollywood Releases
|- Sonu Ke Titu Ki Sweety 2018 480p HDRip x264 YsB TeaM Fl SSX

10% Off Cashback Carnival

Sonu Ke Titu Ki Sweety 2018 480p HDRip x264 YsB TeaM Fl SSX

0 Members and 1 Guest are viewing this topic.

July 06, 2018, 11:08:42 AM
  • Admin
  • Legend Member
  • ****
  • Topic Author
  • Thank You: 651
  • Reputation: 641
  • Activity:
    9.4%
  • Country: cn
  • Posts: 2391
  • Topics: 521
  • Join Date: Dec 2011
  • ShareSpark Member
  • Expertises:
  • Bollywood Movies
  • PC Applications
  • PC Games
Sonu Ke Titu Ki Sweety 2018 480p HDRip x264 YsB TeaM Fl SSX



:info:


Code: [Select]
General
Complete name               : Sonu Ke Titu Ki Sweety 2018 480p HDRip x264 YsB TeaM Fl SSX.mkv
Format                      : Matroska
Format version              : Version 4 / Version 2
File size                   : 509 MiB
Duration                    : 2 h 17 min
Overall bit rate            : 517 kb/s
Movie name                  : Sonu Ke Titu Ki Sweety 2018 480p HDRip x264 YsB TeaM Fl SSX
Encoded date                : UTC 2018-07-05 09:12:53
Writing application         : mkvmerge v8.1.0 ('Psychedelic Postcard') 64bit
Writing library             : libebml v1.3.1 + libmatroska v1.4.2

Video
ID                          : 1
Format                      : AVC
Format/Info                 : Advanced Video Codec
Format profile              : [email protected]
Format settings             : CABAC / 4 Ref Frames
Format settings, CABAC      : Yes
Format settings, ReFrames   : 4 frames
Codec ID                    : V_MPEG4/ISO/AVC
Duration                    : 2 h 17 min
Bit rate                    : 450 kb/s
Width                       : 848 pixels
Height                      : 352 pixels
Display aspect ratio        : 2.40:1
Frame rate mode             : Constant
Frame rate                  : 23.976 (24000/1001) FPS
Color space                 : YUV
Chroma subsampling          : 4:2:0
Bit depth                   : 8 bits
Scan type                   : Progressive
Bits/(Pixel*Frame)          : 0.063
Stream size                 : 444 MiB (87%)
Title                       : YsB TeaM Fl

Audio
ID                          : 2
Format                      : AC-3
Format/Info                 : Audio Coding 3
Codec ID                    : A_AC3
Duration                    : 2 h 17 min
Bit rate mode               : Constant
Bit rate                    : 64.0 kb/s
Channel(s)                  : 2 channels
Channel positions           : Front: L R
Sampling rate               : 44.1 kHz
Bit depth                   : 16 bits
Compression mode            : Lossy
Stream size                 : 63.1 MiB (12%)
Title                       : YsB TeaM Fl
Language                    : Hindi
Service kind                : Complete Main
Default                     : Yes
Forced                      : No

Text
ID                          : 3
Format                      : UTF-8
Codec ID                    : S_TEXT/UTF8
Codec ID/Info               : UTF-8 Plain Text
Duration                    : 2 h 14 min
Count of elements           : 2194
Stream size                 : 64.0 KiB (0%)
Title                       : YsB TeaM Fl
Language                    : English
Default                     : Yes
Forced                      : No

:ss:







:download:










Thanks.
TeaM FL , TeaM SSX, AnantaRdp



Share this topic on FacebookShare this topic on GoogleShare this topic on MySpaceShare this topic on TwitterShare this topic on Yahoo



Thanks given by:


July 07, 2018, 05:00:21 PM
Reply #1
  • Addic7ed
  • Legend Member
  • ****
  • Thank You: 70
  • Reputation: 36
  • Activity:
    40.8%
  • Posts: 1538
  • Topics: 102
  • Join Date: May 2012
  • ShareSpark Member

Tags: 2018 480P HDRip YsB Team SSX 
 

Related Topics




Back to top