+ ShareSpark.net »  :::: Dubbed Zone (Dubbed English in Hindi) » English Movies Dubbed in Hindi » TeamSSX Dubbed Releases
|- Pacific Rim Uprising 2018 BDRip 1080p x264 [Hindi-Eng] YsB TeaM Fl & SSX


10% SBI and 10% Discount

Pacific Rim Uprising 2018 BDRip 1080p x264 [Hindi-Eng] YsB TeaM Fl & SSX

0 Members and 1 Guest are viewing this topic.

July 06, 2018, 11:20:17 AM
  • Admin
  • Legend Member
  • ****
  • Topic Author
  • Thank You: 654
  • Reputation: 641
  • Activity:
    3.2%
  • Country: cn
  • Posts: 2393
  • Topics: 521
  • Join Date: Dec 2011
  • ShareSpark Member
  • Expertises:
  • Bollywood Movies
  • PC Applications
  • PC Games
Pacific Rim Uprising 2018 BDRip 1080p x264 [Hindi-Eng] YsB TeaM Fl & SSX



:info:

Code: [Select]
General
Complete name               : Pacific Rim Uprising 2018 BDRip 1080p x264 [Hindi-Eng] YsB TeaM Fl & SSX.mkv
Format                      : Matroska
Format version              : Version 4 / Version 2
File size                   : 1.93 GiB
Duration                    : 1 h 50 min
Overall bit rate            : 2 497 kb/s
Movie name                  : Pacific Rim Uprising 2018 BDRip 1080p x264 [Hindi-Eng] YsB TeaM Fl & SSX
Encoded date                : UTC 2018-07-04 18:07:28
Writing application         : mkvmerge v8.1.0 ('Psychedelic Postcard') 64bit
Writing library             : libebml v1.3.1 + libmatroska v1.4.2

Video
ID                          : 1
Format                      : AVC
Format/Info                 : Advanced Video Codec
Format profile              : [email protected]
Format settings             : CABAC / 4 Ref Frames
Format settings, CABAC      : Yes
Format settings, ReFrames   : 4 frames
Codec ID                    : V_MPEG4/ISO/AVC
Duration                    : 1 h 50 min
Bit rate                    : 2 048 kb/s
Width                       : 1 920 pixels
Height                      : 800 pixels
Display aspect ratio        : 2.40:1
Frame rate mode             : Constant
Frame rate                  : 23.976 (24000/1001) FPS
Color space                 : YUV
Chroma subsampling          : 4:2:0
Bit depth                   : 8 bits
Scan type                   : Progressive
Bits/(Pixel*Frame)          : 0.056
Stream size                 : 1.58 GiB (82%)
Title                       : YsB TeaM Fl

Audio #1
ID                          : 2
Format                      : AC-3
Format/Info                 : Audio Coding 3
Codec ID                    : A_AC3
Duration                    : 1 h 50 min
Bit rate mode               : Constant
Bit rate                    : 224 kb/s
Channel(s)                  : 6 channels
Channel positions           : Front: L C R, Side: L R, LFE
Sampling rate               : 48.0 kHz
Frame rate                  : 31.250 FPS (1536 SPF)
Bit depth                   : 16 bits
Compression mode            : Lossy
Stream size                 : 177 MiB (9%)
Title                       : YsB TeaM Fl
Language                    : Hindi
Service kind                : Complete Main
Default                     : Yes
Forced                      : Yes

Audio #2
ID                          : 3
Format                      : AC-3
Format/Info                 : Audio Coding 3
Codec ID                    : A_AC3
Duration                    : 1 h 50 min
Bit rate mode               : Constant
Bit rate                    : 224 kb/s
Channel(s)                  : 6 channels
Channel positions           : Front: L C R, Side: L R, LFE
Sampling rate               : 48.0 kHz
Bit depth                   : 16 bits
Compression mode            : Lossy
Stream size                 : 177 MiB (9%)
Title                       : YsB TeaM Fl
Language                    : English
Service kind                : Complete Main
Default                     : No
Forced                      : No

Text
ID                          : 4
Format                      : UTF-8
Codec ID                    : S_TEXT/UTF8
Codec ID/Info               : UTF-8 Plain Text
Duration                    : 1 h 40 min
Count of elements           : 1161
Stream size                 : 43.4 KiB (0%)
Title                       : YsB TeaM Fl
Language                    : English
Default                     : No
Forced                      : No

:ss:








:download:










Thanks.
TeaM FL , TeaM SSX, AnantaRdp



Share this topic on FacebookShare this topic on GoogleShare this topic on MySpaceShare this topic on TwitterShare this topic on Yahoo

« Last Edit: July 06, 2018, 11:22:14 AM by Ðj sαм »



 

Related Topics





Back to top