+ ShareSpark.net »  :::: Dubbed Zone (Dubbed English in Hindi) » English Movies Dubbed in Hindi » TeamSSX Dubbed Releases
|- Unsane 2018 480 BRRip x264 [Hindi-Eng] YsB TeaM Fl & SSX

Pantry 600 Back

Unsane 2018 480 BRRip x264 [Hindi-Eng] YsB TeaM Fl & SSX

0 Members and 1 Guest are viewing this topic.

July 07, 2018, 12:03:59 AM
  • Admin
  • Legend Member
  • ****
  • Topic Author
  • Thank You: 651
  • Reputation: 641
  • Activity:
    9.6%
  • Country: cn
  • Posts: 2391
  • Topics: 521
  • Join Date: Dec 2011
  • ShareSpark Member
  • Expertises:
  • Bollywood Movies
  • PC Applications
  • PC Games
Unsane 2018 480 BRRip x264 [Hindi-Eng] YsB TeaM Fl & SSX



:info:

Code: [Select]
General
Complete name               : Unsane 2018 480 BRRip x264 [Hindi-Eng] YsB TeaM Fl & SSX.mkv
Format                      : Matroska
Format version              : Version 4 / Version 2
File size                   : 407 MiB
Duration                    : 1 h 38 min
Overall bit rate            : 580 kb/s
Encoded date                : UTC 2018-07-06 18:05:35
Writing application         : mkvmerge v8.1.0 ('Psychedelic Postcard') 64bit
Writing library             : libebml v1.3.1 + libmatroska v1.4.2

Video
ID                          : 1
Format                      : AVC
Format/Info                 : Advanced Video Codec
Format profile              : [email protected]
Format settings             : CABAC / 3 Ref Frames
Format settings, CABAC      : Yes
Format settings, ReFrames   : 3 frames
Codec ID                    : V_MPEG4/ISO/AVC
Duration                    : 1 h 38 min
Bit rate                    : 450 kb/s
Width                       : 848 pixels
Height                      : 480 pixels
Display aspect ratio        : 16:9
Frame rate mode             : Constant
Frame rate                  : 23.976 (24000/1001) FPS
Color space                 : YUV
Chroma subsampling          : 4:2:0
Bit depth                   : 8 bits
Scan type                   : Progressive
Bits/(Pixel*Frame)          : 0.046
Stream size                 : 316 MiB (78%)
Title                       : YsB TeaM Fl

Audio #1
ID                          : 2
Format                      : AC-3
Format/Info                 : Audio Coding 3
Codec ID                    : A_AC3
Duration                    : 1 h 38 min
Bit rate mode               : Constant
Bit rate                    : 64.0 kb/s
Channel(s)                  : 2 channels
Channel positions           : Front: L R
Sampling rate               : 48.0 kHz
Frame rate                  : 31.250 FPS (1536 SPF)
Bit depth                   : 16 bits
Compression mode            : Lossy
Stream size                 : 45.0 MiB (11%)
Title                       : YsB TeaM Fl
Language                    : Hindi
Service kind                : Complete Main
Default                     : Yes
Forced                      : Yes

Audio #2
ID                          : 3
Format                      : AC-3
Format/Info                 : Audio Coding 3
Codec ID                    : A_AC3
Duration                    : 1 h 38 min
Bit rate mode               : Constant
Bit rate                    : 64.0 kb/s
Channel(s)                  : 2 channels
Channel positions           : Front: L R
Sampling rate               : 48.0 kHz
Frame rate                  : 31.250 FPS (1536 SPF)
Bit depth                   : 16 bits
Compression mode            : Lossy
Stream size                 : 44.9 MiB (11%)
Title                       : YsB TeaM Fl
Language                    : English
Service kind                : Complete Main
Default                     : No
Forced                      : No

:ss:







:download:









Thanks.
TeaM FL , TeaM SSX, AnantaRdp



Share this topic on FacebookShare this topic on GoogleShare this topic on MySpaceShare this topic on TwitterShare this topic on Yahoo




 

Related Topics

  Subject / Started by Replies Last post
0 Replies
352 Views
Last post June 06, 2018, 11:53:51 AM
by ♥ Mann ♥
0 Replies
451 Views
Last post June 06, 2018, 11:54:47 AM
by ♥ Mann ♥
2 Replies
1024 Views
Last post July 07, 2018, 12:46:26 PM
by shahzaibjaan
1 Replies
806 Views
Last post July 07, 2018, 05:25:15 PM
by JackRoSe
0 Replies
218 Views
Last post July 18, 2018, 10:02:48 PM
by Ðj sαм



Back to top