+ ShareSpark.net »  :::: Dubbed Zone (Dubbed English in Hindi) » English Movies Dubbed in Hindi » High Resolution Movies
|- Rampage 2018 1080p BluRay x264 Dual Audio [Eng DTS.5.1+Hindi DD5.1]- MSubS.-.Hon3yHD


Mastercard 10% Off
  • Rampage 2018 1080p BluRay x264 Dual Audio [Eng DTS.5.1+Hindi DD5.1]- MSubS.-.Hon3yHD 5 1
Currently:  

Rampage 2018 1080p BluRay x264 Dual Audio [Eng DTS.5.1+Hindi DD5.1]- MSubS.-.Hon3yHD

0 Members and 1 Guest are viewing this topic.

July 08, 2018, 11:41:40 AM
  • Global Moderator
  • Legend Member
  • *****
  • Topic Author
  • Thank You: 10747
  • Reputation: 2171
  • Activity:
    100%
  • Country: in
  • Posts: 5355
  • Topics: 4423
  • Join Date: Jan 2014
  • ıllıllı ѕмoĸιng ιѕ good ғor нealтн ıllıllı :)
Rampage 2018 1080p BluRay x264 Dual Audio [Eng DTS.5.1+Hindi DD5.1]- MSubS.-.Hon3yHD



Quote
Format                                   : Matroska
Format version                           : Version 4 / Version 2
File size                                : 4.71 GiB
Duration                                 : 1 h 47 min
Overall bit rate                         : 6 284 kb/s

Video
ID                                       : 1
Format                                   : AVC
Format/Info                              : Advanced Video Codec
Format profile                           : [email protected]
Format settings                          : CABAC / 5 Ref Frames
Format settings, CABAC                   : Yes
Format settings, RefFrames               : 5 frames
Codec ID                                 : V_MPEG4/ISO/AVC
Duration                                 : 1 h 47 min
Bit rate                                 : 5 067 kb/s
Width                                    : 1 920 pixels
Height                                   : 800 pixels
Display aspect ratio                     : 2.40:1
Frame rate mode                          : Constant
Frame rate                               : 23.976 (24000/1001) FPS
Color space                              : YUV
Chroma subsampling                       : 4:2:0
Bit depth                                : 8 bits
Scan type                                : Progressive
Bits/(Pixel*Frame)                       : 0.138
Stream size                              : 3.80 GiB (81%)
Writing library                          : x264 core

Language                                 : English
Default                                  : Yes
Forced                                   : No
Color range                              : Limited
Color primaries                          : BT.709
Transfer characteristics                 : BT.709
Matrix coefficients                      : BT.709





Audio #1
ID                                       : 2
Format                                   : AC-3
Format/Info                              : Audio Coding 3
Codec ID                                 : A_AC3
Duration                                 : 1 h 47 min
Bit rate mode                            : Constant
Bit rate                                 : 448 kb/s
Channel(s)                               : 6 channels
Channel positions                        : Front: L C R, Side: L R, LFE
Sampling rate                            : 48.0 kHz
Frame rate                               : 31.250 FPS (1536 SPF)
Bit depth                                : 16 bits
Compression mode                         : Lossy
Stream size                              : 344 MiB (7%)
Title                                    : [email protected] @ Hon3yHD- BD DD5.1
Language                                 : Hindi
Service kind                             : Complete Main
Default                                  : No
Forced                                   : No

Audio #2
ID                                       : 3
Format                                   : DTS
Format/Info                              : Digital Theater Systems
Codec ID                                 : A_DTS
Duration                                 : 1 h 47 min
Bit rate mode                            : Constant
Bit rate                                 : 768 kb/s
Channel(s)                               : 6 channels
Channel positions                        : Front: L C R, Side: L R, LFE
Sampling rate                            : 48.0 kHz
Frame rate                               : 93.750 FPS (512 SPF)
Bit depth                                : 24 bits
Compression mode                         : Lossy
Stream size                              : 589 MiB (12%)
Title                                    : Rampage 2018 - Hon3yHD
Language                                 : English
Default                                  : Yes
Forced                                   : No

Text #1
ID                                       : 4
Format                                   : UTF-8
Codec ID                                 : S_TEXT/UTF8
Codec ID/Info                            : UTF-8 Plain Text
Duration                                 : 1 h 45 min
Bit rate                                 : 58 b/s
Count of elements                        : 1544
Stream size                              : 45.0 KiB (0%)
Title                                    : Rampage 2018 - Hon3yHD
Language                                 : English
Default                                  : Yes
Forced                                   : No

Text #2
ID                                       : 5
Format                                   : UTF-8
Codec ID                                 : S_TEXT/UTF8
Codec ID/Info                            : UTF-8 Plain Text
Duration                                 : 1 h 46 min
Bit rate                                 : 41 b/s
Count of elements                        : 1187
Stream size                              : 32.5 KiB (0%)
Title                                    : Rampage 2018 - Hon3yHD
Language                                 : French
Default                                  : No
Forced                                   : No

Text #3
ID                                       : 6
Format                                   : UTF-8
Codec ID                                 : S_TEXT/UTF8
Codec ID/Info                            : UTF-8 Plain Text
Duration                                 : 1 h 46 min
Bit rate                                 : 49 b/s
Count of elements                        : 1276
Stream size                              : 38.4 KiB (0%)
Title                                    : Rampage 2018 - Hon3yHD
Language                                 : Spanish
Default                                  : No
Forced                                   : No

Text #4
ID                                       : 7
Format                                   : UTF-8
Codec ID                                 : S_TEXT/UTF8
Codec ID/Info                            : UTF-8 Plain Text
Duration                                 : 1 h 46 min
Bit rate                                 : 45 b/s
Count of elements                        : 1281
Stream size                              : 35.3 KiB (0%)
Title                                    : Rampage 2018 - Hon3yHD
Language                                 : Portuguese
Default                                  : No
Forced                                   : No

Menu
00:00:00.000                             : en:00:00:00.000
00:12:58.528                             : en:00:12:58.528
00:19:56.278                             : en:00:19:56.278
00:29:53.291                             : en:00:29:53.291
00:40:35.391                             : en:00:40:35.391
00:49:10.906                             : en:00:49:10.906
01:02:38.171                             : en:01:02:38.171
01:10:37.650                             : en:01:10:37.650
01:20:10.472                             : en:01:20:10.472
01:29:23.608                             : en:01:29:23.608
01:39:43.186                             : en:01:39:43.186



:download:

Quote


File Leeched & Uploaded From




Don't walk as you are king, walk as you don't care who the king is....!!
Never argue with an idiot. They drag you down to their level and then beat you with experience?

Share this topic on FacebookShare this topic on GoogleShare this topic on MySpaceShare this topic on TwitterShare this topic on Yahoo

« Last Edit: July 08, 2018, 11:44:46 AM by Rάήνίјάч1234 »



Don't walk as you are king, walk as you don't care who the king is....!!

July 08, 2018, 12:14:15 PM
Reply #1
  • Legend Member
  • ****
  • Thank You: 1474
  • Reputation: 527
  • Activity:
    100%
  • Country: pk
  • Posts: 1705
  • Topics: 1005
  • Join Date: Mar 2015
  • ShareSpark Member

July 08, 2018, 01:21:39 PM
Reply #2
  • Semi Newbie
  • **
  • Thank You: 54
  • Reputation: 14
  • Activity:
    1.6%
  • Country: in
  • Posts: 40
  • Topics: 40
  • Join Date: Jun 2018
  • ShareSpark Member

July 08, 2018, 02:51:30 PM
Reply #3
  • Elite Forces
  • ****
  • Thank You: 117
  • Reputation: 78
  • Activity:
    3.6%
  • Country: pk
  • Posts: 1149
  • Topics: 325
  • Join Date: Sep 2012
  • ShareSpark Member

July 08, 2018, 03:01:36 PM
Reply #4

July 08, 2018, 08:16:33 PM
Reply #5
  • Semi Newbie
  • **
  • Thank You: 0
  • Reputation: 0
  • Activity:
    2.4%
  • Country: in
  • Posts: 19
  • Topics: 0
  • Join Date: Nov 2015
  • ShareSpark Member

July 08, 2018, 08:36:35 PM
Reply #6
  • Newbie
  • **
  • Thank You: 0
  • Reputation: 0
  • Activity:
    0.2%
  • Country: gb
  • Posts: 3
  • Topics: 0
  • Join Date: Jan 2018
  • ShareSpark Member
Anyone post direct link or PM me, acefile links never worked for me

Tags: rampage dual audio 
 

Related Topics





Back to top