+ ShareSpark.net »  :::: Bollywood Zone » Bollywood Movies (Original Rips) » High Resolution Movies
|- Angrezi Mein Kehte Hain (2018) Hindi 1080p WEB-DL H264 AAC 2.0 ESubs - DTOne

10% Off with Visa

Angrezi Mein Kehte Hain (2018) Hindi 1080p WEB-DL H264 AAC 2.0 ESubs - DTOne

0 Members and 1 Guest are viewing this topic.

July 12, 2018, 10:07:34 AM
  • Begginer
  • **
  • Topic Author
  • Thank You: 84
  • Reputation: 13
  • Activity:
    7.4%
  • Country: in
  • Posts: 83
  • Topics: 75
  • Join Date: Feb 2018
  • ShareSpark Member
Angrezi Mein Kehte Hain (2018) Hindi 1080p WEB-DL H264 AAC 2.0 ESubs - DTOne



Specs

Source : AMZN

Format                                   : Matroska
Format version                           : Version 4 / Version 2
File size                                : 6.04 GiB
Duration                                 : 1 h 48 min
Overall bit rate                         : 7 993 kb/s
Movie name                               : Angrezi Mein Kehte Hain
Encoded date                             : UTC 2018-07-11 23:30:29
Writing application                      : mkvmerge v24.0.0 ('Beyond The Pale') 64-bit
Writing library                          : libebml v1.3.6 + libmatroska v1.4.9
Cover                                    : Yes
Attachments                              : Cover.jpg

Video
ID                                       : 1
Format                                   : AVC
Format/Info                              : Advanced Video Codec
Format profile                           : [email protected]
Format settings                          : CABAC / 3 Ref Frames
Format settings, CABAC                   : Yes
Format settings, ReFrames                : 3 frames
Codec ID                                 : V_MPEG4/ISO/AVC
Duration                                 : 1 h 48 min
Bit rate                                 : 7 713 kb/s
Width                                    : 1 920 pixels
Height                                   : 816 pixels
Display aspect ratio                     : 2.35:1
Frame rate mode                          : Constant
Frame rate                               : 23.976 (23976/1000) FPS
Color space                              : YUV
Chroma subsampling                       : 4:2:0
Bit depth                                : 8 bits
Scan type                                : Progressive
Bits/(Pixel*Frame)                       : 0.205
Stream size                              : 5.83 GiB (96%)
Title                                    : Angrezi Mein Kehte Hain
Writing library                          : x264 core 152
Encoding settings                        : cabac=1 / ref=3 / deblock=1:0:0 / analyse=0x1:0x111 / me=hex / subme=7 / psy=1 / psy_rd=1.00:0.00 / mixed_ref=1 / me_range=16 / chroma_me=1 / trellis=1 / 8x8dct=0 / cqm=0 / deadzone=21,11 / fast_pskip=1 / chroma_qp_offset=-2 / threads=18 / lookahead_threads=3 / sliced_threads=0 / nr=0 / decimate=1 / interlaced=0 / bluray_compat=0 / constrained_intra=0 / bframes=3 / b_pyramid=1 / b_adapt=1 / b_bias=0 / direct=1 / weightb=1 / open_gop=0 / weightp=2 / keyint=250 / keyint_min=25 / scenecut=40 / intra_refresh=0 / rc_lookahead=40 / rc=crf / mbtree=1 / crf=15.0 / qcomp=0.60 / qpmin=10 / qpmax=51 / qpstep=4 / ip_ratio=1.41 / aq=1:1.00
Default                                  : Yes
Forced                                   : No

Audio
ID                                       : 2
Format                                   : AAC
Format/Info                              : Advanced Audio Codec
Format profile                           : LC
Codec ID                                 : A_AAC-2
Duration                                 : 1 h 48 min
Bit rate                                 : 277 kb/s
Channel(s)                               : 2 channels
Channel positions                        : Front: L R
Sampling rate                            : 48.0 kHz
Frame rate                               : 46.875 FPS (1024 SPF)
Compression mode                         : Lossy
Stream size                              : 215 MiB (3%)
Title                                    : Angrezi Mein Kehte Hain
Language                                 : Hindi
Default                                  : Yes
Forced                                   : No

Text
ID                                       : 3
Format                                   : UTF-8
Codec ID                                 : S_TEXT/UTF8
Codec ID/Info                            : UTF-8 Plain Text
Duration                                 : 1 h 42 min
Bit rate                                 : 60 b/s
Count of elements                        : 1530
Stream size                              : 45.6 KiB (0%)
Title                                    : Angrezi Mein Kehte Hain
Language                                 : English
Default                                  : Yes
Forced                                   : No


Screens:
















A DDR Exclusive Release...





Share this topic on FacebookShare this topic on GoogleShare this topic on MySpaceShare this topic on TwitterShare this topic on Yahoo

« Last Edit: July 12, 2018, 11:39:17 AM by Katyayan »


Thanks given by:


July 12, 2018, 03:37:10 PM
Reply #1
  • Conqueror
  • Elite Forces
  • *****
  • Thank You: 491
  • Reputation: 180
  • Activity:
    40%
  • Country: in
  • Posts: 1112
  • Topics: 490
  • Join Date: Oct 2015
  • Hit ThanX Button 🔳 N Repute Button 🔳
Hit Thnx Button 🔳 N + Repute Button 🔳 Always Appreciate UploadeR 🤗 GiVe Respect GeT Respect :yu:

Tags:
 

Related Topics




Back to top