+ ShareSpark.net »  :::: Dubbed Zone (Dubbed English in Hindi) » English Movies Dubbed in Hindi » HEVC / H.265 Releases
|- Casino Royale (2006) {Dual Audio} 1080p BluRay 10Bit H265 [ English DD 5.1 - Hindi 6 CH ] ESubs

Pantry 600 Back

Casino Royale (2006) {Dual Audio} 1080p BluRay 10Bit H265 [ English DD 5.1 - Hindi 6 CH ] ESubs

0 Members and 1 Guest are viewing this topic.

July 12, 2018, 01:48:30 PM
  • Admin
  • Legend Member
  • ****
  • Topic Author
  • Thank You: 2068
  • Reputation: 542
  • Activity:
    21%
  • Country: in
  • Posts: 3602
  • Topics: 2190
  • Join Date: Dec 2013
  • ShareSpark Member
   

Casino Royale (2006) {Dual Audio} 1080p BluRay 10Bit H265 [ English DD 5.1 - Hindi 6 CH ] ESubs



Poster






   

















 
 
 IMDB         :      

 
General

Format                      : Matroska
Format version              : Version 4 / Version 2
File size                   : 3.35 GiB
Duration                    : 2 h 24 min
Overall bit rate            : 3 321 kb/s
Encoded date                : UTC 2018-07-12 02:34:06
Writing application         : mkvmerge v24.0.0 ('Beyond The Pale') 64-bit
Writing library             : libebml v1.3.6 + libmatroska v1.4.9

Video
ID                          : 1
Format                      : HEVC
Format/Info                 : High Efficiency Video Coding
Format profile              : Main [email protected]@Main
Codec ID                    : V_MPEGH/ISO/HEVC
Duration                    : 2 h 24 min
Bit rate                    : 2 228 kb/s
Width                       : 1 920 pixels
Height                      : 800 pixels
Display aspect ratio        : 2.40:1
Frame rate mode             : Constant
Frame rate                  : 23.976 (24000/1001) FPS
Color space                 : YUV
Chroma subsampling          : 4:2:0
Bit depth                   : 10 bits
Bits/(Pixel*Frame)          : 0.061
Stream size                 : 2.25 GiB (67%)
Language                    : English
Default                     : Yes
Forced                      : Yes
Color range                 : Limited
Color primaries             : BT.709
Transfer characteristics    : BT.709
Matrix coefficients         : BT.709

Audio #1
ID                          : 2
Format                      : AC-3
Format/Info                 : Audio Coding 3
Codec ID                    : A_AC3
Duration                    : 2 h 24 min
Bit rate mode               : Constant
Bit rate                    : 640 kb/s
Channel(s)                  : 6 channels
Channel positions           : Front: L C R, Side: L R, LFE
Sampling rate               : 48.0 kHz
Frame rate                  : 31.250 FPS (1536 SPF)
Bit depth                   : 16 bits
Compression mode            : Lossy
Stream size                 : 662 MiB (19%)
Language                    : Hindi
Service kind                : Complete Main
Default                     : Yes
Forced                      : Yes

Audio #2
ID                          : 3
Format                      : AC-3
Format/Info                 : Audio Coding 3
Codec ID                    : A_AC3
Duration                    : 2 h 24 min
Bit rate mode               : Constant
Bit rate                    : 448 kb/s
Channel(s)                  : 6 channels
Channel positions           : Front: L C R, Side: L R, LFE
Sampling rate               : 48.0 kHz
Frame rate                  : 31.250 FPS (1536 SPF)
Bit depth                   : 16 bits
Compression mode            : Lossy
Stream size                 : 463 MiB (13%)
Language                    : English
Service kind                : Complete Main
Default                     : No
Forced                      : No

Text #1
ID                          : 4
Format                      : VobSub
Muxing mode                 : zlib
Codec ID                    : S_VOBSUB
Codec ID/Info               : Picture based subtitle format used on DVDs
Duration                    : 2 h 23 min
Bit rate                    : 5 127 b/s
Count of elements           : 1042
Stream size                 : 5.25 MiB (0%)
Language                    : English
Default                     : No
Forced                      : No


Menu
00:00:00.000                : en:(01)00:00:00:000
00:09:37.285                : en:(02)00:09:37:285
00:19:30.502                : en:(03)00:19:30:502
00:25:35.325                : en:(04)00:25:35:325
00:35:18.241                : en:(05)00:35:18:241
00:39:58.854                : en:(06)00:39:58:854
00:45:21.760                : en:(07)00:45:21:760
00:57:50.383                : en:(08)00:57:50:383
01:07:21.620                : en:(09)01:07:21:620
01:17:11.376                : en:(10)01:17:11:376
01:30:05.400                : en:(11)01:30:05:400
01:38:40.497                : en:(12)01:38:40:497
01:43:28.952                : en:(13)01:43:28:952
01:54:02.377                : en:(14)01:54:02:377
02:05:44.703                : en:(15)02:05:44:703
02:13:19.032                : en:(16)02:13:19:032
02:24:32.872                : en:(17)02:24:32:872
 





All Credit Goes To Original Uploader










      























      
      

Share this topic on FacebookShare this topic on GoogleShare this topic on MySpaceShare this topic on TwitterShare this topic on Yahoo





Tags:
 

Related Topics




Back to top