+ ShareSpark.net »  :::: Bollywood Zone » Regional Movies » Regional Movies in Hindi
|- Kabali (2016) 720p HDRip Multi Audio [Tamil-5.1] [Hindi-Telugu-Malayalam] x264 ESub...Hon3y


10% SBI and 10% Discount

Kabali (2016) 720p HDRip Multi Audio [Tamil-5.1] [Hindi-Telugu-Malayalam] x264 ESub...Hon3y

0 Members and 1 Guest are viewing this topic.

July 12, 2018, 04:43:02 PM
  • ***************
  • Team SSX
  • Legend Member
  • ***
  • Topic Author
  • Thank You: 1798
  • Reputation: 551
  • Activity:
    100%
  • Country: pk
  • Posts: 1881
  • Topics: 1172
  • Join Date: Mar 2015
  • =$ Success Never Ends $=
Kabali (2016) 720p HDRip Multi Audio [Tamil-5.1] [Hindi-Telugu-Malayalam] x264 ESub...Hon3y




















MIDEA INFO


Format                      : Matroska
Format version              : Version 4 / Version 2
File size                   : 1.45 GiB
Duration                    : 2 h 23 min
Overall bit rate            : 1 446 kb/s

Video
Format                      : AVC
Format/Info                 : Advanced Video Codec
Format profile              : [email protected]
Format settings, CABAC      : Yes
Format settings, ReFrames   : 12 frames
Codec ID                    : V_MPEG4/ISO/AVC
Duration                    : 2 h 23 min
Bit rate                    : 930 kb/s
Width                       : 1 280 pixels
Height                      : 544 pixels
Display aspect ratio        : 2.35:1
Frame rate mode             : Constant
Frame rate                  : 25.000 FPS
Color space                 : YUV
Chroma subsampling          : 4:2:0
Bit depth                   : 8 bits
Scan type                   : Progressive
Bits/(Pixel*Frame)          : 0.053
Stream size                 : 952 MiB (64%)
Title                       : Hon3yHD

Audio 1
Format                      : AAC
Format/Info                 : Advanced Audio Codec
Format profile              : LC
Codec ID                    : A_AAC
Duration                    : 2 h 23 min
Bit rate                    : 128 kb/s
Channel(s)                  : 2 channels
Channel positions           : Front: L R
Sampling rate               : 48.0 kHz
Frame rate                  : 46.875 FPS (1024 spf)
Compression mode            : Lossy
Delay relative to video     : 9 ms
Stream size                 : 131 MiB (9%)
Title                       : Hon3yHD
Language                    : Hindi
Default                     : Yes
Forced                      : No

Audio 2
Format                      : AAC
Format/Info                 : Advanced Audio Codec
Format profile              : HE-AAC / LC
Codec ID                    : A_AAC
Duration                    : 2 h 23 min
Bit rate                    : 128 kb/s
Channel(s)                  : 6 channels
Channel positions           : Front: L C R, Side: L R, LFE
Sampling rate               : 48.0 kHz / 24.0 kHz
Frame rate                  : 23.438 FPS (1024 spf)
Compression mode            : Lossy
Delay relative to video     : 31 ms
Stream size                 : 131 MiB (9%)
Title                       : Hon3yHD
Language                    : Tamil
Default                     : No

Audio 3
Format                      : AAC
Format/Info                 : Advanced Audio Codec
Format profile              : LC
Codec ID                    : A_AAC
Duration                    : 2 h 23 min
Bit rate                    : 128 kb/s
Channel(s)                  : 2 channels
Channel positions           : Front: L R
Sampling rate               : 48.0 kHz
Frame rate                  : 46.875 FPS (1024 spf)
Compression mode            : Lossy
Delay relative to video     : 9 ms
Stream size                 : 131 MiB (9%)
Title                       : Hon3yHD
Language                    : Telugu
Default                     : No

Audio 4
Format                      : AAC
Format/Info                 : Advanced Audio Codec
Format profile              : LC
Codec ID                    : A_AAC
Duration                    : 2 h 23 min
Bit rate                    : 128 kb/s
Channel(s)                  : 2 channels
Channel positions           : Front: L R
Sampling rate               : 48.0 kHz
Frame rate                  : 46.875 FPS (1024 spf)
Compression mode            : Lossy
Delay relative to video     : 9 ms
Stream size                 : 131 MiB (9%)
Title                       : Hon3yHD
Language                    : Malayalam
Default                     : No

Subtitle Text 1
Format                      : UTF-8
Codec ID                    : S_TEXT/UTF8
Codec ID/Info               : UTF-8 Plain Text
Duration                    : 2 h 19 min
Bit rate                    : 58 b/s
Count of elements           : 2158
Stream size                 : 60.2 KiB (0%)
Title                       : Hon3yHD
Language                    : English
Default                     : Yes
Forced                      : No



 :ss:



 

 

 

 




 :download:


Quote





















Share this topic on FacebookShare this topic on GoogleShare this topic on MySpaceShare this topic on TwitterShare this topic on Yahoo



Thanks given by:


Tags:
 

Related Topics





Back to top