+ ShareSpark.net »  :::: Bollywood Zone » Indian TV Shows
|- SACRED GAMES S01 UNRATED HINDI 1080P NF WEB-DL DD 5.1 H.264 =TEAMSUNNY=

10% Off with Visa

SACRED GAMES S01 UNRATED HINDI 1080P NF WEB-DL DD 5.1 H.264 =TEAMSUNNY=

0 Members and 1 Guest are viewing this topic.

July 12, 2018, 06:15:28 PM
  • Legend
  • Legend Member
  • ***
  • Topic Author
  • Thank You: 1080
  • Reputation: 338
  • Activity:
    72%
  • Country: in
  • Posts: 2999
  • Topics: 2896
  • Join Date: Sep 2013
  • The Pirate
  • Expertises:
  • Bollywood Movies
  • Hollywood Movies


General
Complete name                            : Episode 7.mkv
Format                                  : Matroska
Format version                          : Version 2
File size                                : 1.35 GiB
Duration                                : 43 min 0 s
Overall bit rate                        : 4 487 kb/s
Encoded date                            : UTC 2018-07-06 11:45:08
Writing application                      : mkvmerge v21.0.0 ('Tardigrades Will Inherit The Earth') 64-bit
Writing library                          : libebml v1.3.5 + libmatroska v1.4.8

Video
ID                                      : 1
Format                                  : AVC
Format/Info                              : Advanced Video Codec
Format profile                          : [email protected]
Format settings                          : CABAC / 2 Ref Frames
Format settings, CABAC                  : Yes
Format settings, RefFrames              : 2 frames
Format settings, GOP                    : M=1, N=13
Codec ID                                : V_MPEG4/ISO/AVC
Duration                                : 43 min 0 s
Bit rate                                : 3 717 kb/s
Width                                    : 1 920 pixels
Height                                  : 1 080 pixels
Display aspect ratio                    : 16:9
Frame rate mode                          : Constant
Frame rate                              : 25.000 FPS
Color space                              : YUV
Chroma subsampling                      : 4:2:0
Bit depth                                : 8 bits
Scan type                                : Progressive
Bits/(Pixel*Frame)                      : 0.072
Stream size                              : 1.12 GiB (83%)
Default                                  : Yes
Forced                                  : No

Audio #1
ID                                      : 2
Format                                  : AC-3
Format/Info                              : Audio Coding 3
Codec ID                                : A_AC3
Duration                                : 43 min 0 s
Bit rate mode                            : Constant
Bit rate                                : 384 kb/s
Channel(s)                              : 6 channels
Channel positions                        : Front: L C R, Side: L R, LFE
Sampling rate                            : 48.0 kHz
Frame rate                              : 31.250 FPS (1536 SPF)
Bit depth                                : 16 bits
Compression mode                        : Lossy
Stream size                              : 118 MiB (9%)
Title                                    : 5.1
Language                                : Hindi
Service kind                            : Complete Main
Default                                  : Yes
Forced                                  : No

Audio #2
ID                                      : 3
Format                                  : AC-3
Format/Info                              : Audio Coding 3
Codec ID                                : A_AC3
Duration                                : 43 min 0 s
Bit rate mode                            : Constant
Bit rate                                : 384 kb/s
Channel(s)                              : 6 channels
Channel positions                        : Front: L C R, Side: L R, LFE
Sampling rate                            : 48.0 kHz
Frame rate                              : 31.250 FPS (1536 SPF)
Bit depth                                : 16 bits
Compression mode                        : Lossy
Stream size                              : 118 MiB (9%)
Title                                    : 5.1
Language                                : English
Service kind                            : Complete Main
Default                                  : No
Forced                                  : No

Text
ID                                      : 4
Format                                  : UTF-8
Codec ID                                : S_TEXT/UTF8
Codec ID/Info                            : UTF-8 Plain Text
Duration                                : 40 min 14 s
Bit rate                                : 39 b/s
Count of elements                        : 373
Stream size                              : 11.8 KiB (0%)
Language                                : English
Default                                  : Yes
Forced                                  : No


Quote
:download:
Games S01E07.mkv
Games S01E05.mkv
Games S01E03.mkv
Games S01E08.mkv
Games S01E04.mkv
Games S01E06.mkv
Games S01E01.mkv
Games S01E02.mkv


:download:








Share this topic on FacebookShare this topic on GoogleShare this topic on MySpaceShare this topic on TwitterShare this topic on Yahoo




Bacheyan te mardan de vich,
Difference tan hunda ei aa,

Tags:
 

Related Topics

  Subject / Started by Replies Last post
2 Replies
786 Views
Last post July 12, 2018, 02:51:14 AM
by sharesparkx
1 Replies
709 Views
Last post July 12, 2018, 02:49:00 AM
by sharesparkx
0 Replies
284 Views
Last post July 12, 2018, 05:16:47 PM
by ♥ Mann ♥
0 Replies
225 Views
Last post July 12, 2018, 05:24:53 PM
by ♥ Mann ♥
0 Replies
72 Views
Last post 6 hours ago
by ♥ Mann ♥



Back to top