+ ShareSpark.net »  :::: Bollywood Zone » Indian PC Videos
|- Kismat Konnection (2008) Hindi (Music Video) Bluray 720p X264 AC3.5.1


Electroncs Sale

Kismat Konnection (2008) Hindi (Music Video) Bluray 720p X264 AC3.5.1

0 Members and 1 Guest are viewing this topic.

July 18, 2018, 05:26:31 PM
  • ***************
  • Team SSX
  • Legend Member
  • ***
  • Topic Author
  • Thank You: 1783
  • Reputation: 547
  • Activity:
    100%
  • Country: pk
  • Posts: 1873
  • Topics: 1164
  • Join Date: Mar 2015
  • =$ Success Never Ends $=
Kismat Konnection (2008) Hindi (Music Video) Bluray 720p X264 AC3.5.1














Media Information:




Format                      : Matroska
Format version              : Version 4 / Version 2
File size                   : 77.2 MiB
Duration                    : 4 min 45 s
Overall bit rate            : 2 270 kb/s


Video
ID                          : 1
Format                      : AVC
Format/Info                 : Advanced Video Codec
Format profile              : [email protected]
Format settings             : CABAC / 8 Ref Frames
Format settings, CABAC      : Yes
Format settings, ReFrames   : 8 frames
Codec ID                    : V_MPEG4/ISO/AVC
Duration                    : 4 min 42 s
Bit rate                    : 2 065 kb/s
Width                       : 1 280 pixels
Height                      : 544 pixels
Display aspect ratio        : 2.35:1
Frame rate mode             : Constant
Frame rate                  : 24.000 FPS
Color space                 : YUV
Chroma subsampling          : 4:2:0
Bit depth                   : 8 bits
Scan type                   : Progressive
Bits/(Pixel*Frame)          : 0.124
Stream size                 : 69.6 MiB (90%)
Language                    : English
Default                     : No
Forced                      : No

Audio
ID                          : 2
Format                      : AC-3
Format/Info                 : Audio Coding 3
Codec ID                    : A_AC3
Duration                    : 4 min 42 s
Bit rate mode               : Constant
Bit rate                    : 224 kb/s
Channel(s)                  : 6 channels
Channel positions           : Front: L C R, Side: L R, LFE
Sampling rate               : 48.0 kHz
Frame rate                  : 31.250 FPS (1536 SPF)
Bit depth                   : 16 bits
Compression mode            : Lossy
Delay relative to video     : 13 ms
Stream size                 : 7.55 MiB (10%)
Language                    : Hindi
Service kind                : Complete Main
Default                     : Yes
Forced                      : No





 :ss:







 :download:



















Share this topic on FacebookShare this topic on GoogleShare this topic on MySpaceShare this topic on TwitterShare this topic on Yahoo



Thanks given by:


Tags:
 

Related Topics





Back to top