+ ShareSpark.net »  :::: Bollywood Zone » Regional Movies » Marathi Movies
|- FARZAD (2018) - PREDVDRIP -X264 - AC3 (SAKET EXCUSIVE)BY- DTONE.MP4


100% Recharge Offer

FARZAD (2018) - PREDVDRIP -X264 - AC3 (SAKET EXCUSIVE)BY- DTONE.MP4

0 Members and 1 Guest are viewing this topic.

July 23, 2018, 07:44:10 AM
  • Semi Newbie
  • **
  • Topic Author
  • Thank You: 8
  • Reputation: 1
  • Activity:
    2.8%
  • Country: in
  • Posts: 8
  • Topics: 8
  • Join Date: Nov 2017
  • ShareSpark Member
FARZAD (2018) - PREDVDRIP -X264 - AC3 (SAKET EXCUSIVE).DTone.MP4


 :info:
Video
ID                          : 1
Format                      : AVC
Format/Info                 : Advanced Video Codec
Format profile              : [email protected]
Format settings             : CABAC / 4 Ref Frames
Format settings, CABAC      : Yes
Format settings, RefFrames  : 4 frames
Codec ID                    : avc1
Codec ID/Info               : Advanced Video Coding
Duration                    : 2 h 31 min
Bit rate                    : 516 kb/s
Maximum bit rate            : 2 356 kb/s
Width                       : 688 pixels
Height                      : 272 pixels
Display aspect ratio        : 2.529
Frame rate mode             : Constant
Frame rate                  : 25.000 FPS
Color space                 : YUV
Chroma subsampling          : 4:2:0
Bit depth                   : 8 bits
Scan type                   : Progressive
Bits/(Pixel*Frame)          : 0.110
Stream size                 : 558 MiB (80%)
Writing library             : x264 core 155 r2901 7d0ff22

Audio
ID                          : 2
Format                      : AC-3
Format/Info                 : Audio Coding 3
Format settings, Endianness : Big
Codec ID                    : ac-3
Duration                    : 2 h 31 min
Bit rate mode               : Constant
Bit rate                    : 128 kb/s
Maximum bit rate            : 135 kb/s
Channel(s)                  : 2 channels
Channel positions           : Front: L R
Sampling rate               : 48.0 kHz
Frame rate                  : 31.250 FPS (1536 SPF)
Bit depth                   : 16 bits
Compression mode            : Lossy
Stream size                 : 139 MiB (20%)
Language                    : new
Service kind                : Complete Main

 :ss:




 :download:





Keep  visiting.....

Share this topic on FacebookShare this topic on GoogleShare this topic on MySpaceShare this topic on TwitterShare this topic on Yahoo



Thanks given by:


August 06, 2018, 11:11:21 AM
Reply #1
  • Devoted Member
  • **
  • Thank You: 0
  • Reputation: 0
  • Activity:
    0.6%
  • Country: in
  • Posts: 141
  • Topics: 0
  • Join Date: Jan 2015
  • ShareSpark Member

Tags:
 

Related Topics

  Subject / Started by Replies Last post
2 Replies
2700 Views
Last post January 26, 2018, 03:41:09 PM
by eerwerw
1 Replies
2831 Views
Last post February 25, 2018, 02:10:16 PM
by a2zRG
0 Replies
886 Views
Last post May 24, 2018, 02:05:58 PM
by shahzaibjaan
1 Replies
1484 Views
Last post June 19, 2018, 01:47:48 PM
by shahzaibjaan
0 Replies
1128 Views
Last post July 04, 2018, 03:48:14 AM
by RoBi007




Back to top