+ ShareSpark.net »  :::: Bollywood Zone » Bollywood Movies (Original Rips) » High Resolution Movies
|- BIOSCOPEWALA (2018) UNTOUCHED 1080P WEB-DL X264 AAC ESUB - DTONE 10TH ANNIVERSARY


TV and Appliances

BIOSCOPEWALA (2018) UNTOUCHED 1080P WEB-DL X264 AAC ESUB - DTONE 10TH ANNIVERSARY

0 Members and 1 Guest are viewing this topic.

July 25, 2018, 12:23:47 PM
  • Global Moderator
  • Legend Member
  • *****
  • Topic Author
  • Thank You: 13816
  • Reputation: 2812
  • Activity:
    76.8%
  • Country: in
  • Posts: 6102
  • Topics: 4989
  • Join Date: Jan 2014
  • ıllıllı ѕмoĸιng ιѕ good ғor нealтн ıllıllı :)
BIOSCOPEWALA (2018) UNTOUCHED 1080P WEB-DL X264 AAC ESUB - DTONE 10TH ANNIVERSARY



Quote
General
Complete name              : D:\Bioscopewala.(2018).Untouched.1080p.WEB-DL.x264.AAC.ESub - DTOne.10th.Anniversary\Bioscopewala.(2018).Untouched.1080p.WEB-DL.x264.AAC.ESub - DTOne.10th.Anniversary.mp4
Format                      : MPEG-4
Format profile              : Base Media
Codec ID                    : isom (isom/iso2/avc1/mp41)
File size                  : 2.94 GiB
Duration                    : 1 h 32 min
Overall bit rate mode      : Constant
Overall bit rate            : 4 566 kb/s
Description                : It begins from where Tagore's Kabuliwala ends. Set in Kolkata, young Minnie is introduced to cinema by the bioscopewala. Years later, when he disappears without a trace, she decides to complete his story.
Recorded date              : 2018
Writing application        : Lavf57.83.100
Comment                    : It begins from where Tagore's Kabuliwala ends. Set in Kolkata, young Minnie is introduced to cinema by the bioscopewala. Years later, when he disappears without a trace, she decides to complete his story.

Video
ID                          : 1
Format                      : AVC
Format/Info                : Advanced Video Codec
Format profile              : [email protected]
Format settings            : CABAC / 1 Ref Frames
Format settings, CABAC      : Yes
Format settings, ReFrames  : 1 frame
Format settings, GOP        : M=1, N=100
Codec ID                    : avc1
Codec ID/Info              : Advanced Video Coding
Duration                    : 1 h 32 min
Bit rate mode              : Constant
Bit rate                    : 4 500 kb/s
Width                      : 1 920 pixels
Height                      : 1 080 pixels
Display aspect ratio        : 16:9
Frame rate mode            : Constant
Frame rate                  : 25.000 FPS
Color space                : YUV
Chroma subsampling          : 4:2:0
Bit depth                  : 8 bits
Scan type                  : Progressive
Bits/(Pixel*Frame)          : 0.087
Stream size                : 2.90 GiB (99%)
Codec configuration box    : avcC

Audio
ID                          : 2
Format                      : AAC
Format/Info                : Advanced Audio Codec
Format profile              : LC
Codec ID                    : mp4a-40-2
Duration                    : 1 h 32 min
Duration_LastFrame          : 1 ms
Bit rate mode              : Constant
Bit rate                    : 61.4 kb/s
Channel(s)                  : 2 channels
Channel positions          : Front: L R
Sampling rate              : 48.0 kHz
Frame rate                  : 46.875 FPS (1024 SPF)
Compression mode            : Lossy
Stream size                : 40.5 MiB (1%)
Default                    : Yes
Alternate group            : 1






:download:

Quote


File Leeched & Uploaded From




Don't walk as you are king, walk as you don't care who the king is....!!
Never argue with an idiot. They drag you down to their level and then beat you with experience?

Share this topic on FacebookShare this topic on GoogleShare this topic on MySpaceShare this topic on TwitterShare this topic on Yahoo




Don't walk as you are king, walk as you don't care who the king is....!!

Thanks given by:


Tags:
 

Related Topics





Back to top