+ ShareSpark.net »  :::: Bollywood Zone » Indian PC Videos
|- Dhoom 3 (2013) Bollywood Movie All Video Music Album 1080p Bluray x264 DTS-HDMA By~MaLiK ZEE~


HDFC 10% Off

Dhoom 3 (2013) Bollywood Movie All Video Music Album 1080p Bluray x264 DTS-HDMA By~MaLiK ZEE~

0 Members and 1 Guest are viewing this topic.

July 28, 2018, 06:48:19 PM
Dhoom 3 (2013) Bollywood Movie All Video Music Album 1080p Bluray x264 DTS-HDMA By ~MaLiK ZEE~


Quote

General
Format                      : Matroska
Format version              : Version 4 / Version 2
Overall bit rate            : 9 353 kb/s
Writing application         : Lavf57.71.100
Writing library             : Lavf57.71.100
ErrorDetectionType          : Per level 1

Video
ID                          : 1
Format                      : AVC
Format/Info                 : Advanced Video Codec
Format profile              : [email protected]
Format settings             : CABAC / 5 Ref Frames
Format settings, CABAC      : Yes
Format settings, ReFrames   : 5 frames
Codec ID                    : V_MPEG4/ISO/AVC
Bit rate                    : 7 658 kb/s
Width                       : 1 920 pixels
Height                      : 816 pixels
Display aspect ratio        : 2.35:1
Frame rate mode             : Constant
Frame rate                  : 24.000 FPS
Color space                 : YUV
Chroma subsampling          : 4:2:0
Bit depth                   : 8 bits
Scan type                   : Progressive
Bits/(Pixel*Frame)          : 0.204
Stream size                 : 136 MiB (82%)
Default                     : Yes
Forced                      : No
Color range                 : Limited
Color primaries             : BT.709
Transfer characteristics    : BT.709
Matrix coefficients         : BT.709

Audio
ID                          : 2
Format                      : DTS
Format/Info                 : Digital Theater Systems
Codec ID                    : A_DTS
Bit rate mode               : Constant
Bit rate                    : 1 509 kb/s
Channel(s)                  : 6 channels
Channel positions           : Front: L C R, Side: L R, LFE
Sampling rate               : 48.0 kHz
Frame rate                  : 93.750 FPS (512 SPF)
Bit depth                   : 24 bits
Compression mode            : Lossy
Delay relative to video     : -83 ms
Stream size                 : 26.8 MiB (16%)
Language                    : Hindi
Default                     : Yes
Forced                      : No


 :ss:






















 :download:

Google Drive

Quote
01-Malang 1

02-Dhoom Tap

03-Kamli

04-Malang 2

05-Tu Hi Junoon

06-Bande Hain Hum Uske

07-Dhoom Machale End Roll
:download:
Zip File
Quote






Share this topic on FacebookShare this topic on GoogleShare this topic on MySpaceShare this topic on TwitterShare this topic on Yahoo



Thanks given by:


July 28, 2018, 06:55:04 PM
Reply #1
  • ***************
  • Team SSX
  • Legend Member
  • ***
  • Thank You: 1826
  • Reputation: 552
  • Activity:
    100%
  • Country: pk
  • Posts: 1924
  • Topics: 1210
  • Join Date: Mar 2015
  • =$ Success Never Ends $=

 

Related Topics





Back to top