+ ShareSpark.net »  :::: Bollywood Zone » Indian PC Videos
|- Mein Tera Hero (2014) Bollywood Movie All Video Music Album 1080p Bluray x264 DTS-HDMA By~MaLiK ZEE~


Mein Tera Hero (2014) Bollywood Movie All Video Music Album 1080p Bluray x264 DTS-HDMA By~MaLiK ZEE~

0 Members and 1 Guest are viewing this topic.

July 28, 2018, 06:30:14 PM
Mein Tera Hero (2014) Bollywood Movie All Video Music Album 1080p Bluray x264 DTS-HDMA By ~MaLiK ZEE~


Quote

General
Format                      : Matroska
Format version              : Version 4 / Version 2
Overall bit rate            : 15.7 Mb/s
Writing application         : Lavf57.71.100
Writing library             : Lavf57.71.100
ErrorDetectionType          : Per level 1

Video
ID                          : 1
Format                      : AVC
Format/Info                 : Advanced Video Codec
Format profile              : [email protected]
Format settings             : CABAC / 5 Ref Frames
Format settings, CABAC      : Yes
Format settings, ReFrames   : 5 frames
Codec ID                    : V_MPEG4/ISO/AVC
Bit rate                    : 13.9 Mb/s
Width                       : 1 920 pixels
Height                      : 816 pixels
Display aspect ratio        : 2.35:1
Frame rate mode             : Constant
Frame rate                  : 24.000 FPS
Color space                 : YUV
Chroma subsampling          : 4:2:0
Bit depth                   : 8 bits
Scan type                   : Progressive
Bits/(Pixel*Frame)          : 0.369
Stream size                 : 442 MiB (88%)
Default                     : Yes
Forced                      : No
Color range                 : Limited
Color primaries             : BT.709
Transfer characteristics    : BT.709
Matrix coefficients         : BT.709

Audio
ID                          : 2
Format                      : DTS
Format/Info                 : Digital Theater Systems
Codec ID                    : A_DTS
Bit rate mode               : Constant
Bit rate                    : 1 509 kb/s
Channel(s)                  : 6 channels
Channel positions           : Front: L C R, Side: L R, LFE
Sampling rate               : 48.0 kHz
Frame rate                  : 93.750 FPS (512 SPF)
Bit depth                   : 24 bits
Compression mode            : Lossy
Delay relative to video     : -78 ms
Stream size                 : 48.0 MiB (10%)
Language                    : Hindi
Default                     : Yes
Forced                      : No


 :ss:




















 :download:

Google Drive

Quote
01-Besharmi Ki Height

02-Palat

03-Shanivaar Rati

04-Bolaynaath

05-Galat Baat Hai
:download:
Zip File
Quote




Share this topic on FacebookShare this topic on GoogleShare this topic on MySpaceShare this topic on TwitterShare this topic on Yahoo

« Last Edit: January 21, 2019, 10:56:38 PM by 【M】【A】【L】【I】【K】 【Z】【E】【E】 »


Thanks given by:


July 28, 2018, 06:50:56 PM
Reply #1
  • Aur Time Well Come
  • Junior Moderator
  • Legend Member
  • ***
  • Thank You: 2135
  • Reputation: 606
  • Activity:
    33.2%
  • Country: pk
  • Posts: 2815
  • Topics: 2014
  • Join Date: Mar 2015
  • =$ Success Never Ends $=

 

Related Topics





Back to top