+ ShareSpark.net »  :::: Bollywood Zone » Indian PC Videos
|- Dhoom (2004) Bollywood Movie All Video Music Album 1080p Bluray x264 DTS-HDMA By ~MaLiK ZEE~


100% Bill Offer

Dhoom (2004) Bollywood Movie All Video Music Album 1080p Bluray x264 DTS-HDMA By ~MaLiK ZEE~

0 Members and 1 Guest are viewing this topic.

July 28, 2018, 06:51:24 PM
Dhoom (2004) Bollywood Movie All Video Music Album 1080p Bluray x264 DTS-HDMA By ~MaLiK ZEE~


Quote

General
Format                      : Matroska
Format version              : Version 4 / Version 2
Overall bit rate            : 15.5 Mb/s
Writing application         : Lavf57.71.100
Writing library             : Lavf57.71.100
ErrorDetectionType          : Per level 1

Video
ID                          : 1
Format                      : AVC
Format/Info                 : Advanced Video Codec
Format profile              : [email protected]
Format settings             : CABAC / 5 Ref Frames
Format settings, CABAC      : Yes
Format settings, ReFrames   : 5 frames
Codec ID                    : V_MPEG4/ISO/AVC
Bit rate                    : 13.7 Mb/s
Width                       : 1 920 pixels
Height                      : 816 pixels
Display aspect ratio        : 2.35:1
Frame rate mode             : Constant
Frame rate                  : 24.000 FPS
Color space                 : YUV
Chroma subsampling          : 4:2:0
Bit depth                   : 8 bits
Scan type                   : Progressive
Bits/(Pixel*Frame)          : 0.365
Stream size                 : 631 MiB (88%)
Default                     : Yes
Forced                      : No
Color range                 : Limited
Color primaries             : BT.709
Transfer characteristics    : BT.709
Matrix coefficients         : BT.709


Audio
ID                          : 2
Format                      : DTS
Format/Info                 : Digital Theater Systems
Codec ID                    : A_DTS
Bit rate mode               : Constant
Bit rate                    : 1 509 kb/s
Channel(s)                  : 6 channels
Channel positions           : Front: L C R, Side: L R, LFE
Sampling rate               : 48.0 kHz
Frame rate                  : 93.750 FPS (512 SPF)
Bit depth                   : 16 bits
Compression mode            : Lossy
Delay relative to video     : -83 ms
Stream size                 : 69.4 MiB (10%)
Language                    : Hindi
Default                     : Yes
Forced                      : No


 :ss:












 :download:

Google Drive

Quote
01-Dhoom Machale

02-Shikdum Shikdum

03-Dilbara

04-Salaame Salaame

05-Dhoom English Version

:download:
Zip File
Quote





Share this topic on FacebookShare this topic on GoogleShare this topic on MySpaceShare this topic on TwitterShare this topic on Yahoo



Thanks given by:


July 28, 2018, 06:55:21 PM
Reply #1
  • Elite Forces
  • ****
  • Thank You: 244
  • Reputation: 105
  • Activity:
    8.6%
  • Country: sa
  • Posts: 1174
  • Topics: 130
  • Join Date: Jan 2017
  • ShareSpark Member

July 28, 2018, 06:57:03 PM
Reply #2
  • ***************
  • Team SSX
  • Legend Member
  • ***
  • Thank You: 1826
  • Reputation: 552
  • Activity:
    100%
  • Country: pk
  • Posts: 1924
  • Topics: 1210
  • Join Date: Mar 2015
  • =$ Success Never Ends $=

 

Related Topics





Back to top